<?xml version="1.0" standalone="no"?>
<!DOCTYPE svg PUBLIC "-//W3C//DTD SVG 1.1//EN" "http://www.w3.org/Graphics/SVG/1.1/DTD/svg11.dtd" >
<svg>
<metadata>
Created by FontForge 20090622 at Fri Sep 16 17:28:14 2016
 By deploy user
Copyright 2008 Monotype Imaging Inc. All rights reserved.
</metadata>
<defs>
<font id="TanseekModernW20-Light" horiz-adv-x="0" >
  <font-face 
    font-family="TanseekModernW20-Light"
    font-weight="400"
    font-stretch="normal"
    units-per-em="1000"
    panose-1="2 11 3 4 3 2 2 2 3 3"
    ascent="671"
    descent="-329"
    x-height="332"
    cap-height="467"
    bbox="-62 -328 914 906"
    underline-thickness="50"
    underline-position="-100"
    unicode-range="U+0020-U+FEFC"
  />
<missing-glyph horiz-adv-x="500" 
d="M12 665h475v-665h-475v665zM250 375l161 243h-323zM60 91l161 242l-161 242v-484zM278 333l162 -243v485zM250 290l-162 -242h323z" />
    <glyph glyph-name="IJ" unicode="IJ" horiz-adv-x="359" 
d="M58 0v467h35v-467h-35zM305 111q0 -41 -5.5 -64t-16 -35t-26 -15t-36.5 -3q-11 0 -27.5 2t-26.5 4l-6 31q16 -5 32 -7t28 -2t21 2t15.5 9.5t9.5 23.5t3 44v335h-85l10 31h110v-356z" />
    <glyph glyph-name="ij" unicode="ij" horiz-adv-x="246" 
d="M91 439q0 -11 -7.5 -18t-18.5 -7q-10 0 -17 7t-7 18t7 18t17 7q11 0 18.5 -7t7.5 -18zM48 332h34v-289q0 -19 16 -19q5 0 14 3l6 -24q-21 -7 -34 -7q-17 0 -26.5 8.5t-9.5 38.5v289zM206 439q0 -11 -7.5 -18t-17.5 -7q-11 0 -18 7t-7 18t7 18t18 7q10 0 17.5 -7t7.5 -18z
M198 -61q0 -38 -16.5 -57.5t-56.5 -19.5q-19 0 -31 3.5t-21 8.5l7 29q5 -3 15.5 -7t26.5 -4q20 0 31 7.5t11 39.5v393h34v-393z" />
    <glyph glyph-name="napostrophe" unicode="&#x27;n" horiz-adv-x="393" 
d="M124 280q8 7 22 17t32 19t38.5 15.5t41.5 6.5q26 0 43.5 -6t28 -19.5t14.5 -35t4 -53.5v-181q0 -19 16 -19q5 0 14 3l6 -24q-21 -7 -34 -7q-6 0 -12.5 1t-11.5 5.5t-8.5 14t-3.5 25.5v180q0 42 -10.5 62.5t-50.5 20.5q-21 0 -42 -7.5t-39 -18t-31 -20.5t-17 -15v-244h-34
v332h34v-52zM55 467q0 -23 -17.5 -44.5t-43.5 -38.5l-8 22q3 2 8.5 6.5t10.5 9.5t9 10.5t4 10.5t-3 8.5t-7 7t-7 8.5t-3 13q0 10 7 17.5t21 7.5q11 0 20 -10t9 -28z" />
    <glyph glyph-name="uni0622" unicode="&#x627;&#x653;" horiz-adv-x="127" 
d="M80 0l-33 -19v486h33v-467zM106 551q-7 -9 -16 -9q-6 0 -13.5 4t-15 8.5t-13.5 8.5t-9 4q-5 0 -11 -6l-14 -15l-12 12l16 17q9 11 18 11q5 0 12 -4t14.5 -9l13.5 -9t10 -4q5 0 11 6l15 16l12 -12z" />
    <glyph glyph-name="uni0623" unicode="&#x627;&#x654;" horiz-adv-x="127" 
d="M80 0l-33 -19v486h33v-467zM100 643h-17q-14 0 -24.5 -7t-10.5 -23q0 -17 10.5 -23.5t22.5 -6.5h38v-19h-113v19h32q-6 6 -8.5 14.5t-2.5 16.5q0 17 12 32.5t38 15.5h23v-19z" />
    <glyph glyph-name="uni0624" unicode="&#x648;&#x654;" horiz-adv-x="314" 
d="M146 0q-54 0 -76.5 27t-22.5 67v143q0 51 27.5 73t71.5 22h121v-368q0 -45 -15 -72.5t-37 -42t-47 -19.5t-46 -5h-8t-8 1l-22 32q7 -2 15 -2h15q22 0 43.5 4.5t38.5 16.5t27.5 32t10.5 52v39h-88zM234 299h-96q-32 0 -45 -16t-13 -45v-145q0 -26 14.5 -43t43.5 -17h96
v266zM186 519h-17q-14 0 -24.5 -7t-10.5 -23q0 -17 10.5 -23.5t22.5 -6.5h38v-19h-113v19h32q-6 6 -8.5 14.5t-2.5 16.5q0 17 12 32.5t38 15.5h23v-19z" />
    <glyph glyph-name="uni0625" unicode="&#x627;&#x655;" horiz-adv-x="127" 
d="M80 0h-33v467h33v-467zM99 -97h-16q-14 0 -24.5 -6.5t-10.5 -22.5q0 -17 10.5 -23.5t22.5 -6.5h38v-19h-113v19h32q-11 11 -11 31q0 16 12 32t38 16h22v-20z" />
    <glyph glyph-name="uni0626" unicode="&#x64a;&#x654;" horiz-adv-x="489" 
d="M442 -27q0 -46 -20.5 -75.5t-50.5 -46t-64.5 -23t-62.5 -6.5q-31 0 -65.5 6.5t-64 23t-48.5 46t-19 74.5v188l33 23v-211q0 -38 17.5 -61t43 -35t54 -16t49.5 -4q28 0 57.5 6t53.5 19.5t39 36t15 55.5v27h-89q-51 0 -75 26.5t-24 71.5v136q0 46 24.5 72t74.5 26h122v-33
h-128q-32 0 -46 -18t-14 -47v-137q0 -34 16 -49t44 -15h128v-60zM105 359h-15q-13 0 -25 -6t-12 -24t11.5 -24t26.5 -6h34v-19h-114v19h32q-12 15 -12 31q0 22 15 35t36 13h23v-19z" />
    <glyph glyph-name="uniFB00" unicode="ff" horiz-adv-x="378" 
d="M180 439q-9 5 -21 8t-23 3q-24 0 -32 -10.5t-8 -36.5v-71h74v-28h-74v-304h-35v304h-51l6 28h45v71q0 36 15.5 56.5t57.5 20.5q17 0 29 -3t23 -8zM375 439q-9 5 -21 8t-23 3q-24 0 -32 -10.5t-8 -36.5v-71h74v-28h-74v-304h-35v304h-51l6 28h45v71q0 36 15.5 56.5
t57.5 20.5q17 0 29 -3t23 -8z" />
    <glyph glyph-name="uniFB01" unicode="fi" horiz-adv-x="312" 
d="M180 439q-9 5 -21 8t-23 3q-24 0 -32 -10.5t-8 -36.5v-71h74v-28h-74v-304h-35v304h-51l6 28h45v71q0 36 15.5 56.5t57.5 20.5q17 0 29 -3t23 -8zM274 439q0 -11 -7.5 -18t-18.5 -7q-10 0 -17 7t-7 18t7 18t17 7q11 0 18.5 -7t7.5 -18zM231 332h34v-289q0 -19 16 -19
q5 0 14 3l6 -24q-21 -7 -34 -7q-17 0 -26.5 8.5t-9.5 38.5v289z" />
    <glyph glyph-name="uniFB02" unicode="fl" horiz-adv-x="324" 
d="M180 439q-9 5 -21 8t-23 3q-24 0 -32 -10.5t-8 -36.5v-71h74v-28h-74v-304h-35v304h-51l6 28h45v71q0 36 15.5 56.5t57.5 20.5q17 0 29 -3t23 -8zM314 3q-13 -5 -21 -6t-13 -1q-7 0 -13.5 1t-11.5 6t-8 15t-3 27v422h34v-424q0 -19 15 -19q5 0 14 3z" />
    <glyph glyph-name="uniFB03" unicode="ffi" horiz-adv-x="507" 
d="M180 439q-9 5 -21 8t-23 3q-24 0 -32 -10.5t-8 -36.5v-71h74v-28h-74v-304h-35v304h-51l6 28h45v71q0 36 15.5 56.5t57.5 20.5q17 0 29 -3t23 -8zM375 439q-9 5 -21 8t-23 3q-24 0 -32 -10.5t-8 -36.5v-71h74v-28h-74v-304h-35v304h-51l6 28h45v71q0 36 15.5 56.5
t57.5 20.5q17 0 29 -3t23 -8zM469 439q0 -11 -7.5 -18t-18.5 -7q-10 0 -17 7t-7 18t7 18t17 7q11 0 18.5 -7t7.5 -18zM426 332h34v-289q0 -19 16 -19q5 0 14 3l6 -24q-21 -7 -34 -7q-17 0 -26.5 8.5t-9.5 38.5v289z" />
    <glyph glyph-name="uniFB04" unicode="ffl" horiz-adv-x="519" 
d="M180 439q-9 5 -21 8t-23 3q-24 0 -32 -10.5t-8 -36.5v-71h74v-28h-74v-304h-35v304h-51l6 28h45v71q0 36 15.5 56.5t57.5 20.5q17 0 29 -3t23 -8zM375 439q-9 5 -21 8t-23 3q-24 0 -32 -10.5t-8 -36.5v-71h74v-28h-74v-304h-35v304h-51l6 28h45v71q0 36 15.5 56.5
t57.5 20.5q17 0 29 -3t23 -8zM439 467h34v-424q0 -19 16 -19q5 0 14 3l6 -24q-21 -7 -34 -7q-17 0 -26.5 8.5t-9.5 38.5v424z" />
    <glyph glyph-name="uniFDF2" unicode="&#xfedf;&#xfee0;&#xfeea;" horiz-adv-x="603" arabic-form="isolated" 
d="M472 33q17 0 27 5t15.5 13.5t7.5 18.5t2 19v378h32v-380q0 -44 -22.5 -65.5t-58.5 -21.5h-241v20l-25 -20h-65q-53 0 -75 27.5t-22 67.5v142q0 52 28.5 73.5t71.5 21.5h120v-299h112v434h33v-434h60zM234 299h-92q-35 0 -48.5 -17.5t-13.5 -46.5v-141q0 -61 61 -61h93
v266zM482 603q0 -14 -5.5 -26.5t-28.5 -12.5h-105q-23 0 -28.5 12.5t-5.5 26.5v62h19v-66q0 -12 5 -14t12 -2h40v82h20v-82h40q7 0 12 2t5 14v66h20v-62zM385 738v138h20v-138h-20z" />
    <glyph glyph-name="uniFEF5" unicode="&#xfedf;&#xfe82;" horiz-adv-x="388" arabic-form="isolated" 
d="M47 0v33h134l-118 299h36l117 -299h41q17 0 27 5t15.5 13.5t7.5 18.5t2 19v378h32v-380q0 -44 -22.5 -65.5t-58.5 -21.5h-213zM126 447q-7 -9 -16 -9q-6 0 -13.5 4t-15 8.5t-13.5 8.5t-9 4q-5 0 -11 -6l-14 -15l-12 12l16 17q9 11 18 11q5 0 12 -4t14.5 -9l13.5 -9t10 -4
q5 0 11 6l15 16l12 -12z" />
    <glyph glyph-name="uniFEF6" unicode="&#xfee0;&#xfe82;" horiz-adv-x="377" arabic-form="final" 
d="M181 33l-118 299h36l117 -299h92v434h33v-434h40v-33h-334v33h134zM126 447q-7 -9 -16 -9q-6 0 -13.5 4t-15 8.5t-13.5 8.5t-9 4q-5 0 -11 -6l-14 -15l-12 12l16 17q9 11 18 11q5 0 12 -4t14.5 -9l13.5 -9t10 -4q5 0 11 6l15 16l12 -12z" />
    <glyph glyph-name="uniFEF7" unicode="&#xfedf;&#xfe84;" horiz-adv-x="388" arabic-form="isolated" 
d="M47 0v33h134l-118 299h36l117 -299h41q17 0 27 5t15.5 13.5t7.5 18.5t2 19v378h32v-380q0 -44 -22.5 -65.5t-58.5 -21.5h-213zM120 519h-17q-14 0 -24.5 -7t-10.5 -23q0 -17 10.5 -23.5t22.5 -6.5h38v-19h-113v19h32q-6 6 -8.5 14.5t-2.5 16.5q0 17 12 32.5t38 15.5h23
v-19z" />
    <glyph glyph-name="uniFEF8" unicode="&#xfee0;&#xfe84;" horiz-adv-x="377" arabic-form="final" 
d="M181 33l-118 299h36l117 -299h92v434h33v-434h40v-33h-334v33h134zM120 519h-17q-14 0 -24.5 -7t-10.5 -23q0 -17 10.5 -23.5t22.5 -6.5h38v-19h-113v19h32q-6 6 -8.5 14.5t-2.5 16.5q0 17 12 32.5t38 15.5h23v-19z" />
    <glyph glyph-name="uniFEF9" unicode="&#xfedf;&#xfe88;" horiz-adv-x="388" arabic-form="isolated" 
d="M47 0v33h134l-118 299h36l117 -299h41q17 0 27 5t15.5 13.5t7.5 18.5t2 19v378h32v-380q0 -44 -22.5 -65.5t-58.5 -21.5h-213zM141 -96h-17q-14 0 -24.5 -7t-10.5 -23q0 -17 10.5 -23.5t22.5 -6.5h38v-19h-113v19h32q-6 6 -8.5 14.5t-2.5 16.5q0 17 12 32.5t38 15.5h23
v-19z" />
    <glyph glyph-name="uniFEFA" unicode="&#xfee0;&#xfe88;" horiz-adv-x="377" arabic-form="final" 
d="M181 33l-117 299h35l117 -299h93v434h33v-434h39v-33h-334v33h134zM141 -96h-17q-14 0 -24.5 -7t-10.5 -23q0 -17 10.5 -23.5t22.5 -6.5h38v-19h-113v19h32q-6 6 -8.5 14.5t-2.5 16.5q0 17 12 32.5t38 15.5h23v-19z" />
    <glyph glyph-name="uniFEFB" unicode="&#xfedf;&#xfe8e;" horiz-adv-x="388" arabic-form="isolated" 
d="M47 0v33h134l-118 299h36l117 -299h41q17 0 27 5t15.5 13.5t7.5 18.5t2 19v378h32v-380q0 -44 -22.5 -65.5t-58.5 -21.5h-213z" />
    <glyph glyph-name="uniFEFC" unicode="&#xfee0;&#xfe8e;" horiz-adv-x="377" arabic-form="final" 
d="M181 33l-118 299h36l117 -299h92v434h33v-434h40v-33h-334v33h134z" />
    <glyph glyph-name="uni0621" unicode="&#x621;" horiz-adv-x="374" arabic-form="isolated" 
d="M328 30q-63 -21 -121.5 -54.5t-114.5 -71.5l-17 28q29 22 59.5 41t62.5 35q-32 3 -59.5 17t-47.5 36.5t-31.5 51.5t-11.5 63q0 32 11 61t32 51.5t51.5 35.5t69.5 13q12 0 26.5 -0.5t26.5 -2.5v-33q-11 2 -25 2.5t-25 0.5q-63 0 -98 -36t-35 -90q0 -33 12 -59t32 -44
t46 -27.5t54 -9.5t53 8t50 20v-36z" />
    <glyph glyph-name="uni0627" unicode="&#x627;" horiz-adv-x="127" arabic-form="isolated" 
d="M80 0l-33 -19v486h33v-467z" />
    <glyph glyph-name="uni0628" unicode="&#x628;" horiz-adv-x="601" arabic-form="isolated" 
d="M80 246v-150q0 -35 16.5 -49t48.5 -14h311q38 0 51.5 16.5t13.5 47.5v235h33v-234q0 -52 -26 -75t-74 -23h-313q-51 0 -72.5 26.5t-21.5 71.5v126zM331 -153q0 -9 -6.5 -15.5t-15.5 -6.5t-15.5 6.5t-6.5 15.5t6.5 16t15.5 7t15.5 -7t6.5 -16z" />
    <glyph glyph-name="uni0629" unicode="&#x629;" horiz-adv-x="314" arabic-form="isolated" 
d="M138 299q-31 0 -44.5 -17.5t-13.5 -44.5v-136q0 -21 7 -34.5t18 -20.5t24.5 -9.5t27.5 -2.5q15 0 29 3t24.5 10.5t17 20.5t6.5 33v198h-96zM267 91q0 -26 -10 -43t-26 -28t-35.5 -15.5t-38.5 -4.5q-20 0 -39.5 4.5t-35.5 15t-25.5 28t-9.5 43.5v148q0 47 27.5 70t71.5 23
h121v-241zM142 461q0 -9 -6.5 -15t-15.5 -6t-16 6t-7 15q0 10 7 16.5t16 6.5t15.5 -6.5t6.5 -16.5zM218 461q0 -9 -6 -15t-15 -6q-10 0 -16.5 6t-6.5 15q0 10 6.5 16.5t16.5 6.5q9 0 15 -6.5t6 -16.5z" />
    <glyph glyph-name="uni062A" unicode="&#x62a;" horiz-adv-x="601" arabic-form="isolated" 
d="M293 461q0 -9 -6.5 -15t-16.5 -6q-9 0 -15.5 6t-6.5 15q0 10 6.5 16.5t15.5 6.5q10 0 16.5 -6.5t6.5 -16.5zM369 461q0 -9 -6.5 -15t-15.5 -6t-15.5 6t-6.5 15q0 10 6.5 16.5t15.5 6.5t15.5 -6.5t6.5 -16.5zM80 246v-150q0 -35 16.5 -49t48.5 -14h311q38 0 51.5 16.5
t13.5 47.5v235h33v-234q0 -52 -26 -75t-74 -23h-313q-51 0 -72.5 26.5t-21.5 71.5v126z" />
    <glyph glyph-name="uni062B" unicode="&#x62b;" horiz-adv-x="601" arabic-form="isolated" 
d="M293 461q0 -9 -6.5 -15t-16.5 -6q-9 0 -15.5 6t-6.5 15q0 10 6.5 16.5t15.5 6.5q10 0 16.5 -6.5t6.5 -16.5zM369 461q0 -9 -6.5 -15t-15.5 -6t-15.5 6t-6.5 15q0 10 6.5 16.5t15.5 6.5t15.5 -6.5t6.5 -16.5zM326 527q0 -7 -5 -12t-12 -5t-12.5 5t-5.5 12q0 8 5.5 13
t12.5 5t12 -5t5 -13zM80 246v-150q0 -35 16.5 -49t48.5 -14h311q38 0 51.5 16.5t13.5 47.5v235h33v-234q0 -52 -26 -75t-74 -23h-313q-51 0 -72.5 26.5t-21.5 71.5v126z" />
    <glyph glyph-name="uni062C" unicode="&#x62c;" horiz-adv-x="380" arabic-form="isolated" 
d="M153 -175q-47 0 -77 29.5t-30 74.5q0 22 9 41.5t23.5 33t33 21.5t38.5 8h88q33 0 47.5 16t14.5 45v144q0 32 -18 46.5t-44 14.5h-126v33h122q51 0 75 -26t24 -68v-143q0 -49 -26.5 -72t-74.5 -23h-77q-35 0 -55.5 -21t-20.5 -50t20.5 -50t54.5 -21h45l-21 -33h-25z
M333 -156q0 -9 -6.5 -16t-15.5 -7t-15.5 7t-6.5 16t6.5 15.5t15.5 6.5t15.5 -6.5t6.5 -15.5z" />
    <glyph glyph-name="uni062D" unicode="&#x62d;" horiz-adv-x="380" arabic-form="isolated" 
d="M153 -175q-47 0 -77 29.5t-30 74.5q0 22 9 41.5t23.5 33t33 21.5t38.5 8h88q33 0 47.5 16t14.5 45v144q0 32 -18 46.5t-44 14.5h-126v33h122q51 0 75 -26t24 -68v-143q0 -49 -26.5 -72t-74.5 -23h-77q-35 0 -55.5 -21t-20.5 -50t20.5 -50t54.5 -21h178l-21 -33h-158z" />
    <glyph glyph-name="uni062E" unicode="&#x62e;" horiz-adv-x="380" arabic-form="isolated" 
d="M227 461q0 -9 -6.5 -15t-16.5 -6q-9 0 -15 6t-6 15q0 10 6 16.5t15 6.5q10 0 16.5 -6.5t6.5 -16.5zM153 -175q-47 0 -77 29.5t-30 74.5q0 22 9 41.5t23.5 33t33 21.5t38.5 8h88q33 0 47.5 16t14.5 45v144q0 32 -18 46.5t-44 14.5h-126v33h122q51 0 75 -26t24 -68v-143
q0 -49 -26.5 -72t-74.5 -23h-77q-35 0 -55.5 -21t-20.5 -50t20.5 -50t54.5 -21h178l-21 -33h-158z" />
    <glyph glyph-name="uni062F" unicode="&#x62f;" horiz-adv-x="329" arabic-form="isolated" 
d="M142 332q39 0 65.5 -11.5t43.5 -31t24.5 -44t7.5 -51.5v-99q0 -49 -27.5 -72t-71.5 -23h-137v33h144q27 0 42.5 14.5t15.5 45.5v96q0 59 -29.5 84.5t-76.5 25.5h-41v33h40z" />
    <glyph glyph-name="uni0630" unicode="&#x630;" horiz-adv-x="329" arabic-form="isolated" 
d="M146 461q0 -9 -6.5 -15t-14.5 -6q-10 0 -16.5 6t-6.5 15q0 10 6.5 16.5t16.5 6.5q8 0 14.5 -6.5t6.5 -16.5zM142 332q39 0 65.5 -11.5t43.5 -31t24.5 -44t7.5 -51.5v-99q0 -49 -27.5 -72t-71.5 -23h-137v33h144q27 0 42.5 14.5t15.5 45.5v96q0 59 -29.5 84.5t-76.5 25.5
h-41v33h40z" />
    <glyph glyph-name="uni0631" unicode="&#x631;" horiz-adv-x="167" arabic-form="isolated" 
d="M120 -39q0 -55 -20 -85.5t-61 -50.5l-22 29q19 10 32.5 19t21.5 20t11.5 25t3.5 34v380h34v-371z" />
    <glyph glyph-name="uni0632" unicode="&#x632;" horiz-adv-x="167" arabic-form="isolated" 
d="M125 462q0 -9 -6.5 -15.5t-15.5 -6.5t-16 6t-7 16q0 9 7 15.5t16 6.5t15.5 -6.5t6.5 -15.5zM120 -39q0 -55 -20 -85.5t-61 -50.5l-22 29q19 10 32.5 19t21.5 20t11.5 25t3.5 34v380h34v-371z" />
    <glyph glyph-name="uni0633" unicode="&#x633;" horiz-adv-x="864" arabic-form="isolated" 
d="M818 101q0 -48 -23 -74.5t-77 -26.5h-276v-29q0 -44 -19.5 -72.5t-48.5 -45.5t-64 -24t-66 -7q-34 0 -69 7.5t-63.5 24.5t-46.5 46t-18 72v188l33 23v-211q0 -33 15 -55.5t38.5 -36t52.5 -19t58 -5.5q33 0 62.5 6.5t52.5 20t36.5 35.5t13.5 53v361h33v-299h154v299h34
v-299h90q38 0 51.5 17.5t13.5 48.5v233h33v-231z" />
    <glyph glyph-name="uni0634" unicode="&#x634;" horiz-adv-x="864" arabic-form="isolated" 
d="M598 461q0 -9 -6.5 -15t-16.5 -6q-9 0 -15 6t-6 15q0 10 6 16.5t15 6.5q10 0 16.5 -6.5t6.5 -16.5zM674 461q0 -9 -6.5 -15t-15.5 -6t-15.5 6t-6.5 15t6.5 16t15.5 7t15.5 -6.5t6.5 -16.5zM631 527q0 -7 -4.5 -12t-12.5 -5q-7 0 -12.5 5t-5.5 12q0 8 5.5 13t12.5 5
q8 0 12.5 -5t4.5 -13zM818 101q0 -48 -23 -74.5t-77 -26.5h-276v-29q0 -44 -19.5 -72.5t-48.5 -45.5t-64 -24t-66 -7q-34 0 -69 7.5t-63.5 24.5t-46.5 46t-18 72v188l33 23v-211q0 -33 15 -55.5t38.5 -36t52.5 -19t58 -5.5q33 0 62.5 6.5t52.5 20t36.5 35.5t13.5 53v361h33
v-299h154v299h34v-299h90q38 0 51.5 17.5t13.5 48.5v233h33v-231z" />
    <glyph glyph-name="uni0635" unicode="&#x635;" horiz-adv-x="793" arabic-form="isolated" 
d="M651 33q35 0 48.5 18t13.5 46v153q0 18 -11 35.5t-42 17.5q-11 0 -19.5 -2.5l-18.5 -5.5l-135 -45q-21 -7 -33 -19t-12 -37v-161h209zM409 332h33v-69q9 9 26 14l156 54q18 6 35 6q35 0 61 -23.5t26 -64.5v-151q0 -51 -25.5 -74.5t-70.5 -23.5h-208v-29
q0 -44 -19.5 -72.5t-48.5 -45.5t-64 -24t-66 -7q-34 0 -69 7.5t-63.5 24.5t-46.5 46t-18 72v188l33 23v-211q0 -33 15 -55.5t38.5 -36t52.5 -19t58 -5.5q33 0 62.5 6.5t52.5 20t36.5 35.5t13.5 53v361z" />
    <glyph glyph-name="uni0636" unicode="&#x636;" horiz-adv-x="793" arabic-form="isolated" 
d="M599 461q0 -9 -6.5 -15t-15.5 -6t-15.5 6t-6.5 15q0 10 6.5 16.5t15.5 6.5t15.5 -6.5t6.5 -16.5zM651 33q35 0 48.5 18t13.5 46v153q0 18 -11 35.5t-42 17.5q-11 0 -19.5 -2.5l-18.5 -5.5l-135 -45q-21 -7 -33 -19t-12 -37v-161h209zM409 332h33v-69q9 9 26 14l156 54
q18 6 35 6q35 0 61 -23.5t26 -64.5v-151q0 -51 -25.5 -74.5t-70.5 -23.5h-208v-29q0 -44 -19.5 -72.5t-48.5 -45.5t-64 -24t-66 -7q-34 0 -69 7.5t-63.5 24.5t-46.5 46t-18 72v188l33 23v-211q0 -33 15 -55.5t38.5 -36t52.5 -19t58 -5.5q33 0 62.5 6.5t52.5 20t36.5 35.5
t13.5 53v361z" />
    <glyph glyph-name="uni0637" unicode="&#x637;" horiz-adv-x="514" arabic-form="isolated" 
d="M372 33q35 0 48.5 18t13.5 46v153q0 18 -11 35.5t-42 17.5q-11 0 -19.5 -2.5l-18.5 -5.5l-135 -45q-21 -7 -33 -19t-12 -37v-161h209zM163 -45l-33 -17v62h-83l15 33h68v434h33v-204q9 9 26 14l156 54q18 6 35 6q35 0 61 -23.5t26 -64.5v-151q0 -51 -25.5 -74.5
t-70.5 -23.5h-208v-45z" />
    <glyph glyph-name="uni0638" unicode="&#x638;" horiz-adv-x="514" arabic-form="isolated" 
d="M321 461q0 -9 -6.5 -15t-16.5 -6q-9 0 -15.5 6t-6.5 15q0 10 6.5 16.5t15.5 6.5q10 0 16.5 -6.5t6.5 -16.5zM372 33q35 0 48.5 18t13.5 46v153q0 18 -11 35.5t-42 17.5q-11 0 -19.5 -2.5l-18.5 -5.5l-135 -45q-21 -7 -33 -19t-12 -37v-161h209zM163 -45l-33 -17v62h-83
l15 33h68v434h33v-204q9 9 26 14l156 54q18 6 35 6q35 0 61 -23.5t26 -64.5v-151q0 -51 -25.5 -74.5t-70.5 -23.5h-208v-45z" />
    <glyph glyph-name="uni0639" unicode="&#x639;" horiz-adv-x="380" arabic-form="isolated" 
d="M159 0q-38 0 -58.5 -21t-20.5 -50q0 -33 21.5 -52t53.5 -19h178l-22 -33h-156q-24 0 -44 8t-34.5 22t-22.5 33t-8 41q0 28 13.5 52t38.5 38q-22 19 -27.5 37.5t-5.5 41.5v138q0 48 26.5 72t74.5 24h120v-33h-126q-33 0 -47.5 -17.5t-14.5 -44.5v-140q0 -39 18.5 -51.5
t42.5 -12.5h174v-33h-174z" />
    <glyph glyph-name="uni063A" unicode="&#x63a;" horiz-adv-x="380" arabic-form="isolated" 
d="M171 461q0 10 6.5 16.5t15.5 6.5q10 0 16.5 -6.5t6.5 -16.5q0 -9 -6.5 -15t-16.5 -6q-9 0 -15.5 6t-6.5 15zM159 0q-38 0 -58.5 -21t-20.5 -50q0 -33 21.5 -52t53.5 -19h178l-22 -33h-156q-24 0 -44 8t-34.5 22t-22.5 33t-8 41q0 28 13.5 52t38.5 38q-22 19 -27.5 37.5
t-5.5 41.5v138q0 48 26.5 72t74.5 24h120v-33h-126q-33 0 -47.5 -17.5t-14.5 -44.5v-140q0 -39 18.5 -51.5t42.5 -12.5h174v-33h-174z" />
    <glyph glyph-name="uni0641" unicode="&#x641;" horiz-adv-x="601" arabic-form="isolated" 
d="M80 246v-149q0 -64 61 -64h193v203q0 51 27.5 73.5t73.5 22.5h119v-237q0 -46 -24 -70.5t-75 -24.5h-312q-28 0 -46.5 8t-29.5 21.5t-15.5 31t-4.5 36.5v127zM456 33q65 0 65 61v205h-92q-33 0 -47.5 -16t-14.5 -48v-202h89zM466 461q0 -9 -6.5 -15t-15.5 -6t-15.5 6
t-6.5 15q0 10 6.5 16.5t15.5 6.5t15.5 -6.5t6.5 -16.5z" />
    <glyph glyph-name="uni0642" unicode="&#x642;" horiz-adv-x="489" arabic-form="isolated" 
d="M316 461q0 -9 -6.5 -15t-15.5 -6q-10 0 -16 6t-6 15q0 10 6 16.5t16 6.5q9 0 15.5 -6.5t6.5 -16.5zM393 461q0 -9 -6.5 -15t-16.5 -6q-9 0 -15 6t-6 15q0 10 6 16.5t15 6.5t16 -6.5t7 -16.5zM409 299h-95q-32 0 -46 -18t-14 -47v-137q0 -34 16 -49t44 -15h95v266z
M442 -27q0 -46 -20.5 -75.5t-50.5 -46t-64.5 -23t-62.5 -6.5q-31 0 -65.5 6.5t-64 23t-48.5 46t-19 74.5v188l33 23v-211q0 -38 17.5 -61t43 -35t54 -16t49.5 -4q28 0 57.5 6t53.5 19.5t39 36t15 55.5v27h-89q-51 0 -75 26.5t-24 71.5v136q0 46 24.5 72t74.5 26h122v-359z
" />
    <glyph glyph-name="uni0643" unicode="&#x643;" horiz-adv-x="601" arabic-form="isolated" 
d="M80 246v-150q0 -35 16.5 -49t48.5 -14h311q38 0 51.5 16.5t13.5 47.5v370h33v-369q0 -52 -26 -75t-74 -23h-313q-51 0 -72.5 26.5t-21.5 71.5v126zM332 306h-17q-14 0 -24.5 -7t-10.5 -23q0 -17 10.5 -23.5t22.5 -6.5h38v-19h-113v19h32q-6 6 -8.5 14.5t-2.5 16.5
q0 17 12 32.5t38 15.5h23v-19z" />
    <glyph glyph-name="uni0644" unicode="&#x644;" horiz-adv-x="489" arabic-form="isolated" 
d="M442 -29q0 -44 -19.5 -72.5t-48.5 -45.5t-64 -24t-66 -7q-34 0 -69 7.5t-63.5 24.5t-46.5 46t-18 72v188l33 23v-211q0 -33 15 -55.5t38.5 -36t52.5 -19t58 -5.5q33 0 62.5 6.5t52.5 20t36.5 35.5t13.5 53v496h33v-496z" />
    <glyph glyph-name="uni0645" unicode="&#x645;" horiz-adv-x="414" arabic-form="isolated" 
d="M145 0q-40 0 -52.5 -17.5t-12.5 -45.5v-95l-33 -19v114q0 51 26 73.5t75 22.5v203q0 51 27.5 73.5t73.5 22.5h119v-237q0 -46 -24 -70.5t-75 -24.5h-124zM270 33q65 0 65 61v205h-92q-33 0 -47.5 -16t-14.5 -48v-202h89z" />
    <glyph glyph-name="uni0646" unicode="&#x646;" horiz-adv-x="489" arabic-form="isolated" 
d="M267 461q0 -9 -6 -15t-16 -6q-9 0 -15.5 6t-6.5 15q0 10 6.5 16.5t15.5 6.5t15.5 -6.5t6.5 -16.5zM442 -29q0 -44 -19.5 -72.5t-48.5 -45.5t-64 -24t-66 -7q-34 0 -69 7.5t-63.5 24.5t-46.5 46t-18 72v188l33 23v-211q0 -33 15 -55.5t38.5 -36t52.5 -19t58 -5.5
q33 0 62.5 6.5t52.5 20t36.5 35.5t13.5 53v361h33v-361z" />
    <glyph glyph-name="uni0647" unicode="&#x647;" horiz-adv-x="314" arabic-form="isolated" 
d="M138 299q-31 0 -44.5 -17.5t-13.5 -44.5v-136q0 -21 7 -34.5t18 -20.5t24.5 -9.5t27.5 -2.5q15 0 29 3t24.5 10.5t17 20.5t6.5 33v198h-96zM267 91q0 -26 -10 -43t-26 -28t-35.5 -15.5t-38.5 -4.5q-20 0 -39.5 4.5t-35.5 15t-25.5 28t-9.5 43.5v148q0 47 27.5 70t71.5 23
h121v-241z" />
    <glyph glyph-name="uni0648" unicode="&#x648;" horiz-adv-x="314" arabic-form="isolated" 
d="M146 0q-54 0 -76.5 27t-22.5 67v143q0 51 27.5 73t71.5 22h121v-368q0 -45 -15 -72.5t-37 -42t-47 -19.5t-46 -5h-8t-8 1l-22 32q7 -2 15 -2h15q22 0 43.5 4.5t38.5 16.5t27.5 32t10.5 52v39h-88zM234 299h-96q-32 0 -45 -16t-13 -45v-145q0 -26 14.5 -43t43.5 -17h96
v266z" />
    <glyph glyph-name="uni0649" unicode="&#x649;" horiz-adv-x="489" arabic-form="isolated" 
d="M442 -27q0 -46 -20.5 -75.5t-50.5 -46t-64.5 -23t-62.5 -6.5q-31 0 -65.5 6.5t-64 23t-48.5 46t-19 74.5v188l33 23v-211q0 -38 17.5 -61t43 -35t54 -16t49.5 -4q28 0 57.5 6t53.5 19.5t39 36t15 55.5v27h-89q-51 0 -75 26.5t-24 71.5v136q0 46 24.5 72t74.5 26h122v-33
h-128q-32 0 -46 -18t-14 -47v-137q0 -34 16 -49t44 -15h128v-60z" />
    <glyph glyph-name="uni064A" unicode="&#x64a;" horiz-adv-x="489" arabic-form="isolated" 
d="M228 -305q0 -9 -6.5 -16t-15.5 -7t-16 7t-7 16t7 15.5t16 6.5t15.5 -6.5t6.5 -15.5zM304 -305q0 -9 -6 -16t-15 -7q-10 0 -16.5 7t-6.5 16t6.5 15.5t16.5 6.5q9 0 15 -6.5t6 -15.5zM442 -27q0 -46 -20.5 -75.5t-50.5 -46t-64.5 -23t-62.5 -6.5q-31 0 -65.5 6.5t-64 23
t-48.5 46t-19 74.5v188l33 23v-211q0 -38 17.5 -61t43 -35t54 -16t49.5 -4q28 0 57.5 6t53.5 19.5t39 36t15 55.5v27h-89q-51 0 -75 26.5t-24 71.5v136q0 46 24.5 72t74.5 26h122v-33h-128q-32 0 -46 -18t-14 -47v-137q0 -34 16 -49t44 -15h128v-60z" />
    <glyph glyph-name="uni0671" unicode="&#x671;" horiz-adv-x="127" arabic-form="isolated" 
d="M80 0l-33 -19v486h33v-467zM-22 586l23 22q6 6 9 6q4 0 10 -4l22 -16q4 -3 9 -3q6 0 12 8.5l13 19t16 19.5t21 9q15 0 23.5 -9t8.5 -23q0 -25 -21 -38t-44 -13q-12 0 -23.5 3t-20.5 10l-16 11q-6 4 -9 4q-2 0 -5 -3l-15 -15zM70 583q3 -1 10 -1q14 0 31 7.5t17 24.5
q0 8 -4.5 11.5t-10.5 3.5q-7 0 -11.5 -5t-9 -12l-10 -15t-12.5 -14z" />
    <glyph glyph-name="uni0679" unicode="&#x679;" horiz-adv-x="601" arabic-form="isolated" 
d="M347 458q16 0 16 14v36q0 7 -3 13t-11 6t-15 -3l-44 -17q-16 -6 -16 -20v-29h73zM274 421l-19 -10v29h-37l8 18h29v128h19v-65l61 23q7 3 15 3q13 0 23 -9t10 -23v-46q0 -18 -11 -23.5t-23 -5.5h-75v-19zM80 246v-150q0 -35 16.5 -49t48.5 -14h311q38 0 51.5 16.5
t13.5 47.5v235h33v-234q0 -52 -26 -75t-74 -23h-313q-51 0 -72.5 26.5t-21.5 71.5v126z" />
    <glyph glyph-name="uni067E" unicode="&#x67e;" horiz-adv-x="601" arabic-form="isolated" 
d="M286 -153q0 -9 -6.5 -15.5t-15.5 -6.5q-10 0 -16.5 6.5t-6.5 15.5t6.5 16t16.5 7q9 0 15.5 -7t6.5 -16zM363 -153q0 -9 -7 -15.5t-16 -6.5t-15.5 6.5t-6.5 15.5t6.5 16t15.5 7t16 -7t7 -16zM320 -218q0 -8 -5.5 -13t-12.5 -5t-12 5t-5 13q0 7 5 12t12 5t12.5 -5t5.5 -12z
M80 246v-150q0 -35 16.5 -49t48.5 -14h311q38 0 51.5 16.5t13.5 47.5v235h33v-234q0 -52 -26 -75t-74 -23h-313q-51 0 -72.5 26.5t-21.5 71.5v126z" />
    <glyph glyph-name="uni0686" unicode="&#x686;" horiz-adv-x="381" arabic-form="isolated" 
d="M301 -181q0 -5 -4 -9.5t-9 -4.5t-9.5 4.5t-4.5 9.5t4.5 9.5t9.5 4.5t9 -4.5t4 -9.5zM334 -137q0 -7 -5 -12t-12 -5t-12 5t-5 12t5 12t12 5t12 -5t5 -12zM275 -137q0 -7 -4.5 -12t-11.5 -5q-8 0 -12.5 5t-4.5 12t4.5 12t12.5 5q7 0 11.5 -5t4.5 -12zM140 -174
q-42 5 -68 33t-26 70q0 22 9 41.5t23.5 33t33 21.5t38.5 8h88q33 0 47.5 16t14.5 45v144q0 32 -18 46.5t-44 14.5h-126v33h122q51 0 75 -26t24 -68v-143q0 -49 -26.5 -72t-74.5 -23h-77q-35 0 -55.5 -21t-20.5 -50t20.5 -50t54.5 -21h7z" />
    <glyph glyph-name="uni0688" unicode="&#x688;" horiz-adv-x="329" arabic-form="isolated" 
d="M232 458q16 0 16 14v36q0 7 -3 13t-11 6t-15 -3l-44 -17q-16 -6 -16 -20v-29h73zM159 421l-19 -10v29h-37l8 18h29v128h19v-65l61 23q7 3 15 3q13 0 23 -9t10 -23v-46q0 -18 -11 -23.5t-23 -5.5h-75v-19zM142 332q39 0 65.5 -11.5t43.5 -31t24.5 -44t7.5 -51.5v-99
q0 -49 -27.5 -72t-71.5 -23h-137v33h144q27 0 42.5 14.5t15.5 45.5v96q0 59 -29.5 84.5t-76.5 25.5h-41v33h40z" />
    <glyph glyph-name="uni0691" unicode="&#x691;" horiz-adv-x="235" arabic-form="isolated" 
d="M188 -39q0 -55 -19.5 -85.5t-60.5 -50.5l-23 29q19 10 32.5 19t22 20t12 25t3.5 34v380h33v-371zM153 458q16 0 16 14v36q0 7 -3 13t-11 6t-15 -3l-44 -17q-16 -6 -16 -20v-29h73zM80 421l-19 -10v29h-37l8 18h29v128h19v-65l61 23q7 3 15 3q13 0 23 -9t10 -23v-46
q0 -18 -11 -23.5t-23 -5.5h-75v-19z" />
    <glyph glyph-name="uni0698" unicode="&#x698;" horiz-adv-x="186" arabic-form="isolated" 
d="M68 461q0 -9 -6.5 -15.5t-15.5 -6.5t-15.5 6.5t-6.5 15.5t6.5 16t15.5 7t15.5 -7t6.5 -16zM145 461q0 -9 -7 -15.5t-16 -6.5q-8 0 -15 6.5t-7 15.5t7 16t15 7q9 0 16 -7t7 -16zM102 527q0 -8 -5 -12.5t-12 -4.5q-8 0 -13.5 4.5t-5.5 12.5q0 7 5.5 12.5t13.5 5.5
q7 0 12 -5.5t5 -12.5zM140 -39q0 -55 -20 -85.5t-61 -50.5l-22 29q19 10 32.5 19t21.5 20t11.5 25t3.5 34v380h34v-371z" />
    <glyph glyph-name="uni06A4" unicode="&#x6a4;" horiz-adv-x="601" arabic-form="isolated" 
d="M463 527q0 -7 -5.5 -12t-12.5 -5q-8 0 -12.5 5t-4.5 12q0 8 4.5 13t12.5 5q7 0 12.5 -5t5.5 -13zM428 461q0 -9 -6 -15t-15 -6q-10 0 -16.5 6t-6.5 15q0 10 6.5 16.5t16.5 6.5q9 0 15 -6.5t6 -16.5zM505 461q0 -9 -6 -15t-16 -6q-9 0 -15.5 6t-6.5 15q0 10 6.5 16.5
t15.5 6.5q10 0 16 -6.5t6 -16.5zM80 246v-149q0 -64 61 -64h193v203q0 51 27.5 73.5t73.5 22.5h119v-237q0 -46 -24 -70.5t-75 -24.5h-312q-28 0 -46.5 8t-29.5 21.5t-15.5 31t-4.5 36.5v127zM456 33q65 0 65 61v205h-92q-33 0 -47.5 -16t-14.5 -48v-202h89z" />
    <glyph glyph-name="uni06A9" unicode="&#x6a9;" horiz-adv-x="587" arabic-form="isolated" 
d="M80 94q0 -61 61 -61h319q32 0 46.5 16t14.5 45v143q0 35 -17.5 48.5t-43.5 13.5h-159v70q0 51 26 74.5t74 23.5h106v-34h-113q-35 0 -47.5 -17.5t-12.5 -45.5v-38h122q52 0 75 -26t23 -69v-141q0 -50 -26 -73t-74 -23h-307q-56 0 -78 27t-22 69v128l33 22v-152z" />
    <glyph glyph-name="uni06AF" unicode="&#x6af;" horiz-adv-x="601" arabic-form="isolated" 
d="M375 574q-43 0 -74 -25v34q17 15 37 19.5t46 4.5h123v-33h-132zM80 94q0 -61 61 -61h319q32 0 46.5 16t14.5 45v143q0 35 -17.5 48.5t-43.5 13.5h-159v70q0 51 26 74.5t74 23.5h106v-34h-113q-35 0 -47.5 -17.5t-12.5 -45.5v-38h122q52 0 75 -26t23 -69v-141
q0 -50 -26 -73t-74 -23h-307q-56 0 -78 27t-22 69v128l33 22v-152z" />
    <glyph glyph-name="uni06BA" unicode="&#x6ba;" horiz-adv-x="489" arabic-form="isolated" 
d="M442 -29q0 -44 -19.5 -72.5t-48.5 -45.5t-64 -24t-66 -7q-34 0 -69 7.5t-63.5 24.5t-46.5 46t-18 72v188l33 23v-211q0 -33 15 -55.5t38.5 -36t52.5 -19t58 -5.5q33 0 62.5 6.5t52.5 20t36.5 35.5t13.5 53v361h33v-361z" />
    <glyph glyph-name="uni06BE" unicode="&#x6be;" horiz-adv-x="417" arabic-form="isolated" 
d="M149 7q-8 -5 -13.5 -6t-14.5 -1h-121v33h94q-19 22 -19 50q0 30 21.5 51.5t52.5 21.5t52 -21.5t21 -51.5q0 -27 -20 -50h73q32 0 47 16.5t15 44.5v143q0 33 -18 47.5t-44 14.5h-200v33h197q51 0 74.5 -26.5t23.5 -69.5v-141q0 -27 -8 -45t-22 -29.5t-32 -16t-37 -4.5h-95
q-8 0 -14 1t-13 6zM197 83q0 20 -14 34.5t-35 14.5q-20 0 -34 -14.5t-14 -34.5t14 -34.5t34 -14.5q21 0 35 14.5t14 34.5z" />
    <glyph glyph-name="uni06C0" unicode="&#x6c0;" horiz-adv-x="314" arabic-form="isolated" 
d="M138 299q-31 0 -44.5 -17.5t-13.5 -44.5v-136q0 -21 7 -34.5t18 -20.5t24.5 -9.5t27.5 -2.5q15 0 29 3t24.5 10.5t17 20.5t6.5 33v198h-96zM267 91q0 -26 -10 -43t-26 -28t-35.5 -15.5t-38.5 -4.5q-20 0 -39.5 4.5t-35.5 15t-25.5 28t-9.5 43.5v148q0 47 27.5 70t71.5 23
h121v-241zM186 519h-17q-14 0 -24.5 -7t-10.5 -23q0 -17 10.5 -23.5t22.5 -6.5h38v-19h-113v19h32q-6 6 -8.5 14.5t-2.5 16.5q0 17 12 32.5t38 15.5h23v-19z" />
    <glyph glyph-name="uni06C1" unicode="&#x6c1;" horiz-adv-x="314" arabic-form="isolated" 
d="M138 299q-31 0 -44.5 -17.5t-13.5 -44.5v-136q0 -21 7 -34.5t18 -20.5t24.5 -9.5t27.5 -2.5q15 0 29 3t24.5 10.5t17 20.5t6.5 33v198h-96zM267 91q0 -26 -10 -43t-26 -28t-35.5 -15.5t-38.5 -4.5q-20 0 -39.5 4.5t-35.5 15t-25.5 28t-9.5 43.5v148q0 47 27.5 70t71.5 23
h121v-241z" />
    <glyph glyph-name="uni06CC" unicode="&#x6cc;" horiz-adv-x="489" arabic-form="isolated" 
d="M442 -27q0 -46 -20.5 -75.5t-50.5 -46t-64.5 -23t-62.5 -6.5q-31 0 -65.5 6.5t-64 23t-48.5 46t-19 74.5v188l33 23v-211q0 -38 17.5 -61t43 -35t54 -16t49.5 -4q28 0 57.5 6t53.5 19.5t39 36t15 55.5v27h-89q-51 0 -75 26.5t-24 71.5v136q0 46 24.5 72t74.5 26h122v-33
h-128q-32 0 -46 -18t-14 -47v-137q0 -34 16 -49t44 -15h128v-60z" />
    <glyph glyph-name="uni06D2" unicode="&#x6d2;" horiz-adv-x="687" arabic-form="isolated" 
d="M365 369q0 28 10 47t26 30t35.5 16t38.5 5q21 0 40.5 -5t35.5 -16t25.5 -30t9.5 -47v-39h-33v34q0 21 -6.5 34.5t-17.5 21t-25 10.5t-29 3q-33 0 -55 -14t-22 -55v-65h-255q-35 0 -49 -16.5t-14 -48.5v-141q0 -32 17.5 -46t48.5 -14h494l-21 -33h-471q-55 0 -78 26.5
t-23 66.5v143q0 51 27 73.5t72 22.5h219v37z" />
    <glyph glyph-name="uni06D3" unicode="&#x6d3;" horiz-adv-x="687" arabic-form="isolated" 
d="M365 369q0 28 10 47t26 30t35.5 16t38.5 5q21 0 40.5 -5t35.5 -16t25.5 -30t9.5 -47v-39h-33v34q0 21 -6.5 34.5t-17.5 21t-25 10.5t-29 3q-33 0 -55 -14t-22 -55v-65h-255q-35 0 -49 -16.5t-14 -48.5v-141q0 -32 17.5 -46t48.5 -14h494l-21 -33h-471q-55 0 -78 26.5
t-23 66.5v143q0 51 27 73.5t72 22.5h219v37zM228 519h-17q-14 0 -24.5 -7t-10.5 -23q0 -17 10.5 -23.5t22.5 -6.5h38v-19h-113v19h32q-6 6 -8.5 14.5t-2.5 16.5q0 17 12 32.5t38 15.5h23v-19z" />
    <glyph glyph-name="uniFB51" unicode="&#x671;" horiz-adv-x="115" arabic-form="final" 
d="M80 467v-377q0 -22 8 -39.5t32 -17.5v-33q-20 0 -34 7.5t-22.5 19.5t-12.5 27.5t-4 32.5v380h33zM-22 586l23 22q6 6 9 6q4 0 10 -4l22 -16q4 -3 9 -3q6 0 12 8.5l13 19t16 19.5t21 9q15 0 23.5 -9t8.5 -23q0 -25 -21 -38t-44 -13q-11 0 -23 3t-21 10l-16 11q-6 4 -9 4
q-2 0 -5 -3l-15 -15zM70 583q3 -1 10 -1q14 0 31 7.5t17 24.5q0 8 -4.5 11.5t-10.5 3.5q-7 0 -11.5 -5t-9 -12l-10 -15t-12.5 -14z" />
    <glyph glyph-name="uniFB57" unicode="&#x67e;" horiz-adv-x="589" arabic-form="final" 
d="M286 -153q0 -9 -6.5 -15.5t-15.5 -6.5q-10 0 -16.5 6.5t-6.5 15.5t6.5 16t16.5 7q9 0 15.5 -7t6.5 -16zM363 -153q0 -9 -7 -15.5t-16 -6.5t-15.5 6.5t-6.5 15.5t6.5 16t15.5 7t16 -7t7 -16zM320 -218q0 -8 -5.5 -13t-12.5 -5t-12 5t-5 13q0 7 5 12t12 5t12.5 -5t5.5 -12z
M521 332h33v-299h40v-33h-453q-51 0 -72.5 26.5t-21.5 71.5v126l33 22v-150q0 -35 16.5 -49t48.5 -14h376v299z" />
    <glyph glyph-name="uniFB58" unicode="&#x67e;" horiz-adv-x="197" arabic-form="initial" 
d="M53 33q37 0 51 16.5t14 47.5v235h33v-233q0 -48 -24 -73.5t-75 -25.5h-52v33h53zM113 -218q0 -8 -4.5 -13t-12.5 -5t-13 5t-5 13q0 7 5 12t13 5t12.5 -5t4.5 -12zM80 -153q0 -9 -7 -15.5t-16 -6.5t-15.5 6.5t-6.5 15.5t6.5 16t15.5 7t16 -7t7 -16zM156 -153
q0 -9 -6.5 -15.5t-15.5 -6.5t-15.5 6.5t-6.5 15.5t6.5 16t15.5 7t15.5 -7t6.5 -16z" />
    <glyph glyph-name="uniFB59" unicode="&#x67e;" horiz-adv-x="186" arabic-form="medial" 
d="M0 33h118v299h33v-299h39v-33h-190v33zM80 -153q0 -9 -7 -15.5t-16 -6.5t-15.5 6.5t-6.5 15.5t6.5 16t15.5 7t16 -7t7 -16zM156 -153q0 -9 -6.5 -15.5t-15.5 -6.5t-15.5 6.5t-6.5 15.5t6.5 16t15.5 7t15.5 -7t6.5 -16zM113 -218q0 -8 -4.5 -13t-12.5 -5t-13 5t-5 13
q0 7 5 12t13 5t12.5 -5t4.5 -12z" />
    <glyph glyph-name="uniFB67" unicode="&#x679;" horiz-adv-x="589" arabic-form="final" 
d="M521 332h33v-299h40v-33h-453q-51 0 -72.5 26.5t-21.5 71.5v126l33 22v-150q0 -35 16.5 -49t48.5 -14h376v299zM347 458q16 0 16 14v36q0 7 -3 13t-11 6t-15 -3l-44 -17q-16 -6 -16 -20v-29h73zM274 421l-19 -10v29h-37l8 18h29v128h19v-65l61 23q7 3 15 3q13 0 23 -9
t10 -23v-46q0 -18 -11 -23.5t-23 -5.5h-75v-19z" />
    <glyph glyph-name="uniFB68" unicode="&#x679;" horiz-adv-x="257" arabic-form="initial" 
d="M113 33q37 0 51 16.5t14 47.5v235h33v-233q0 -48 -24 -73.5t-75 -25.5h-112v33h113zM175 458q16 0 16 14v36q0 7 -3 13t-11 6t-15 -3l-44 -17q-16 -6 -16 -20v-29h73zM102 421l-19 -10v29h-37l8 18h29v128h19v-65l61 23q7 3 15 3q13 0 23 -9t10 -23v-46q0 -18 -11 -23.5
t-23 -5.5h-75v-19z" />
    <glyph glyph-name="uniFB69" unicode="&#x679;" horiz-adv-x="246" arabic-form="medial" 
d="M0 33h177v299h34v-299h40v-33h-251v33zM175 458q16 0 16 14v36q0 7 -3 13t-11 6t-15 -3l-44 -17q-16 -6 -16 -20v-29h73zM102 421l-19 -10v29h-37l8 18h29v128h19v-65l61 23q7 3 15 3q13 0 23 -9t10 -23v-46q0 -18 -11 -23.5t-23 -5.5h-75v-19z" />
    <glyph glyph-name="uniFB6B" unicode="&#x6a4;" horiz-adv-x="589" arabic-form="final" 
d="M143 0q-28 0 -46.5 8t-29.5 21.5t-15.5 31t-4.5 36.5v127l33 22v-149q0 -64 61 -64h193v203q0 51 27.5 73.5t73.5 22.5h119v-299h40v-33h-451zM428 461q0 -9 -6 -15t-15 -6q-10 0 -16.5 6t-6.5 15q0 10 6.5 16.5t16.5 6.5q9 0 15 -6.5t6 -16.5zM505 461q0 -9 -6 -15
t-16 -6q-9 0 -15.5 6t-6.5 15q0 10 6.5 16.5t15.5 6.5q10 0 16 -6.5t6 -16.5zM463 527q0 -7 -5.5 -12t-12.5 -5q-8 0 -12.5 5t-4.5 12q0 8 4.5 13t12.5 5q7 0 12.5 -5t5.5 -13zM521 299h-92q-33 0 -47.5 -16t-14.5 -48v-202h154v266z" />
    <glyph glyph-name="uniFB6C" unicode="&#x6a4;" horiz-adv-x="342" arabic-form="initial" 
d="M169 461q0 -9 -6 -15t-15 -6q-10 0 -16.5 6t-6.5 15q0 10 6.5 16.5t16.5 6.5q9 0 15 -6.5t6 -16.5zM246 461q0 -9 -6.5 -15t-15.5 -6t-15.5 6t-6.5 15q0 10 6.5 16.5t15.5 6.5t15.5 -6.5t6.5 -16.5zM204 527q0 -7 -5.5 -12t-12.5 -5q-8 0 -13 5t-5 12q0 8 5 13t13 5
q7 0 12.5 -5t5.5 -13zM0 33h75v203q0 51 27.5 73.5t73.5 22.5h119v-237q0 -46 -24 -70.5t-75 -24.5h-196v33zM197 33q65 0 65 61v205h-92q-33 0 -47.5 -16t-14.5 -48v-202h89z" />
    <glyph glyph-name="uniFB6D" unicode="&#x6a4;" horiz-adv-x="330" arabic-form="medial" 
d="M169 461q0 -9 -6 -15t-15 -6q-10 0 -16.5 6t-6.5 15q0 10 6.5 16.5t16.5 6.5q9 0 15 -6.5t6 -16.5zM246 461q0 -9 -6.5 -15t-15.5 -6t-15.5 6t-6.5 15q0 10 6.5 16.5t15.5 6.5t15.5 -6.5t6.5 -16.5zM204 527q0 -7 -5.5 -12t-12.5 -5q-8 0 -13 5t-5 12q0 8 5 13t13 5
q7 0 12.5 -5t5.5 -13zM262 299h-92q-33 0 -47.5 -16t-14.5 -48v-202h154v266zM0 0v33h75v203q0 51 27.5 73.5t73.5 22.5h119v-299h40v-33h-335z" />
    <glyph glyph-name="uniFB7B" unicode="&#x686;" horiz-adv-x="368" arabic-form="final" 
d="M300 -181q0 -5 -3.5 -9.5t-9.5 -4.5q-5 0 -9 4.5t-4 9.5t4 9.5t9 4.5q6 0 9.5 -4.5t3.5 -9.5zM333 -137q0 -7 -4.5 -12t-12.5 -5q-7 0 -11.5 5t-4.5 12t4.5 12t11.5 5q8 0 12.5 -5t4.5 -12zM275 -137q0 -7 -5 -12t-12 -5t-12 5t-5 12t5 12t12 5t12 -5t5 -12zM300 238
q0 32 -18 46.5t-44 14.5h-126v33h122q51 0 75 -26t24 -68v-205h40v-33h-218q-35 0 -55.5 -21t-20.5 -50t20.5 -50t54.5 -21h7l-21 -32q-42 5 -68 33t-26 70q0 22 9 41.5t23.5 33t33 21.5t38.5 8h150v205z" />
    <glyph glyph-name="uniFB7C" unicode="&#x686;" horiz-adv-x="343" arabic-form="initial" 
d="M152 -153q0 -9 -7 -15.5t-16 -6.5q-8 0 -15 6.5t-7 15.5t7 16t15 7q9 0 16 -7t7 -16zM228 -153q0 -9 -6.5 -15.5t-15.5 -6.5t-15.5 6.5t-6.5 15.5t6.5 16t15.5 7t15.5 -7t6.5 -16zM185 -218q0 -8 -4.5 -13t-12.5 -5t-13 5t-5 13q0 7 5 12t13 5t12.5 -5t4.5 -12zM0 33h201
q33 0 47.5 16t14.5 45v144q0 32 -18 46.5t-44 14.5h-126v33h122q51 0 75 -26t24 -68v-143q0 -49 -26.5 -72t-74.5 -23h-195v33z" />
    <glyph glyph-name="uniFB7D" unicode="&#x686;" horiz-adv-x="332" arabic-form="medial" 
d="M152 -153q0 -9 -7 -15.5t-16 -6.5q-8 0 -15 6.5t-7 15.5t7 16t15 7q9 0 16 -7t7 -16zM228 -153q0 -9 -6.5 -15.5t-15.5 -6.5t-15.5 6.5t-6.5 15.5t6.5 16t15.5 7t15.5 -7t6.5 -16zM185 -218q0 -8 -4.5 -13t-12.5 -5t-13 5t-5 13q0 7 5 12t13 5t12.5 -5t4.5 -12zM263 238
q0 32 -18 46.5t-44 14.5h-126v33h122q51 0 75 -26t24 -68v-205h40v-33h-336v33h263v205z" />
    <glyph glyph-name="uniFB89" unicode="&#x688;" horiz-adv-x="318" arabic-form="final" 
d="M232 458q16 0 16 14v36q0 7 -3 13t-11 6t-15 -3l-44 -17q-16 -6 -16 -20v-29h73zM159 421l-19 -10v29h-37l8 18h29v128h19v-65l61 23q7 3 15 3q13 0 23 -9t10 -23v-46q0 -18 -11 -23.5t-23 -5.5h-75v-19zM249 189q0 59 -29.5 84.5t-76.5 25.5h-41v33h40q39 0 65.5 -11.5
t43.5 -31t24.5 -44t7.5 -51.5v-161h39v-33h-275v33h202v156z" />
    <glyph glyph-name="uniFB8B" unicode="&#x698;" horiz-adv-x="174" arabic-form="final" 
d="M68 461q0 -9 -6.5 -15.5t-15.5 -6.5t-15.5 6.5t-6.5 15.5t6.5 16t15.5 7t15.5 -7t6.5 -16zM145 461q0 -9 -7 -15.5t-16 -6.5q-8 0 -15 6.5t-7 15.5t7 16t15 7q9 0 16 -7t7 -16zM102 527q0 -8 -5 -12.5t-12 -4.5q-8 0 -13.5 4.5t-5.5 12.5q0 7 5.5 12.5t13.5 5.5
q7 0 12 -5.5t5 -12.5zM140 33h39v-33h-39v-39q0 -55 -20 -85.5t-61 -50.5l-22 29q19 10 32.5 19t21.5 20t11.5 25t3.5 34v380h34v-299z" />
    <glyph glyph-name="uniFB8D" unicode="&#x691;" horiz-adv-x="224" arabic-form="final" 
d="M189 33h39v-33h-39v-39q0 -55 -20 -85.5t-61 -50.5l-22 29q19 10 32.5 19t21.5 20t11.5 25t3.5 34v380h34v-299zM153 458q16 0 16 14v36q0 7 -3 13t-11 6t-15 -3l-44 -17q-16 -6 -16 -20v-29h73zM80 421l-19 -10v29h-37l8 18h29v128h19v-65l61 23q7 3 15 3q13 0 23 -9
t10 -23v-46q0 -18 -11 -23.5t-23 -5.5h-75v-19z" />
    <glyph glyph-name="uniFB8F" unicode="&#x6a9;" horiz-adv-x="589" arabic-form="final" 
d="M521 237q0 35 -17.5 48.5t-43.5 13.5h-159v70q0 51 26 74.5t74 23.5h106v-34h-113q-35 0 -47.5 -17.5t-12.5 -45.5v-38h122q52 0 75 -26t23 -69v-204h40v-33h-447q-56 0 -78 27t-22 69v128l33 22v-152q0 -61 61 -61h380v204z" />
    <glyph glyph-name="uniFB90" unicode="&#x6a9;" horiz-adv-x="377" arabic-form="initial" 
d="M0 33h235q32 0 46.5 16t14.5 45v143q0 35 -17.5 48.5t-43.5 13.5h-159v70q0 51 26 74.5t74 23.5h106v-34h-113q-35 0 -47.5 -17.5t-12.5 -45.5v-38h122q52 0 75 -26t23 -69v-141q0 -50 -26 -73t-74 -23h-229v33z" />
    <glyph glyph-name="uniFB91" unicode="&#x6a9;" horiz-adv-x="365" arabic-form="medial" 
d="M0 33h297v204q0 35 -17.5 48.5t-43.5 13.5h-159v70q0 51 26 74.5t74 23.5h106v-34h-113q-35 0 -47.5 -17.5t-12.5 -45.5v-38h122q52 0 75 -26t23 -69v-204h40v-33h-370v33z" />
    <glyph glyph-name="uniFB93" unicode="&#x6af;" horiz-adv-x="589" arabic-form="final" 
d="M521 237q0 35 -17.5 48.5t-43.5 13.5h-159v70q0 51 26 74.5t74 23.5h106v-34h-113q-35 0 -47.5 -17.5t-12.5 -45.5v-38h122q52 0 75 -26t23 -69v-204h40v-33h-447q-56 0 -78 27t-22 69v128l33 22v-152q0 -61 61 -61h380v204zM375 574q-43 0 -74 -25v34q17 15 37 19.5
t46 4.5h123v-33h-132z" />
    <glyph glyph-name="uniFB94" unicode="&#x6af;" horiz-adv-x="377" arabic-form="initial" 
d="M151 574q-43 0 -74 -25v34q17 15 37 19.5t46 4.5h123v-33h-132zM0 33h235q32 0 46.5 16t14.5 45v143q0 35 -17.5 48.5t-43.5 13.5h-159v70q0 51 26 74.5t74 23.5h106v-34h-113q-35 0 -47.5 -17.5t-12.5 -45.5v-38h122q52 0 75 -26t23 -69v-141q0 -50 -26 -73t-74 -23
h-229v33z" />
    <glyph glyph-name="uniFB95" unicode="&#x6af;" horiz-adv-x="365" arabic-form="medial" 
d="M151 574q-43 0 -74 -25v34q17 15 37 19.5t46 4.5h123v-33h-132zM0 33h297v204q0 35 -17.5 48.5t-43.5 13.5h-159v70q0 51 26 74.5t74 23.5h106v-34h-113q-35 0 -47.5 -17.5t-12.5 -45.5v-38h122q52 0 75 -26t23 -69v-204h40v-33h-370v33z" />
    <glyph glyph-name="uniFB9F" unicode="&#x6ba;" horiz-adv-x="477" arabic-form="final" 
d="M442 33h40v-33h-40v-29q0 -44 -19.5 -72.5t-48.5 -45.5t-64 -24t-66 -7q-34 0 -69 7.5t-63.5 24.5t-46.5 46t-18 72v188l33 23v-211q0 -33 15 -55.5t38.5 -36t52.5 -19t58 -5.5q33 0 62.5 6.5t52.5 20t36.5 35.5t13.5 53v361h33v-299z" />
    <glyph glyph-name="uniFBA5" unicode="&#x6c0;" horiz-adv-x="303" arabic-form="final" 
d="M144 0q-53 0 -75 27.5t-22 67.5v142q0 52 28.5 73.5t71.5 21.5h120v-299h40v-33h-73v20l-25 -20h-65zM234 299h-92q-35 0 -48.5 -17.5t-13.5 -46.5v-141q0 -61 61 -61h93v266zM186 519h-17q-14 0 -24.5 -7t-10.5 -23q0 -17 10.5 -23.5t22.5 -6.5h38v-19h-113v19h32
q-6 6 -8.5 14.5t-2.5 16.5q0 17 12 32.5t38 15.5h23v-19z" />
    <glyph glyph-name="uniFBA7" unicode="&#x6c1;" horiz-adv-x="556" arabic-form="final" 
d="M560 0q-32 0 -52.5 22t-20.5 62v212q-57 -3 -95 -28t-60.5 -63.5t-32 -86.5t-9.5 -97v-21h-23q-44 0 -83.5 10.5t-70.5 33.5t-49 61t-18 92q0 12 0.5 25.5t1.5 22.5l35 23q-2 -19 -3 -33.5t-1 -26.5q0 -85 45 -129t134 -46q1 80 21.5 137t55 93t80 52.5t95.5 16.5h10
v-245q0 -26 11 -39.5t29 -13.5v-34z" />
    <glyph glyph-name="uniFBA8" unicode="&#x6c1;" horiz-adv-x="311" arabic-form="initial" 
d="M0 0v33h169q62 0 62 61v238h34v-238q0 -42 -18.5 -61.5t-49.5 -32.5l-121 -120q-5 -5 -5 -8q0 -5 4.5 -10t4.5 -14t-6.5 -16t-16.5 -7q-11 0 -16.5 7.5t-5.5 15.5q0 11 11 22l130 130h-176z" />
    <glyph glyph-name="uniFBA9" unicode="&#x6c1;" horiz-adv-x="327" arabic-form="medial" 
d="M0 33h42q41 0 55 -27t14 -70q0 -10 3.5 -24t11.5 -26.5t22.5 -21.5t36.5 -9q35 0 54.5 24t19.5 57q1 45 16 71t57 26v-33q-27 0 -34 -17t-8 -51q-1 -28 -10.5 -49t-24.5 -34.5t-33.5 -20t-36.5 -6.5q-16 0 -34.5 5.5t-34 18.5t-26 34t-11.5 52q-1 21 -3 34t-7 20.5
t-14.5 10.5t-25.5 3h-29v33z" />
    <glyph glyph-name="uniFBAB" unicode="&#x6be;" horiz-adv-x="403" arabic-form="final" 
d="M337 237q0 33 -18 47.5t-44 14.5h-200v33h197q51 0 74.5 -26.5t23.5 -69.5v-203h38v-33h-232q-8 0 -14 1t-13 6q-8 -5 -13.5 -6t-14.5 -1h-121v33h94q-19 22 -19 50q0 30 21.5 51.5t52.5 21.5t52 -21.5t21 -51.5q0 -27 -20 -50h135v204zM197 83q0 20 -14 34.5t-35 14.5
q-20 0 -34 -14.5t-14 -34.5t14 -34.5t34 -14.5q21 0 35 14.5t14 34.5z" />
    <glyph glyph-name="uniFBAC" unicode="&#x6be;" horiz-adv-x="417" arabic-form="initial" 
d="M149 7q-8 -5 -13.5 -6t-14.5 -1h-121v33h94q-19 22 -19 50q0 30 21.5 51.5t52.5 21.5t52 -21.5t21 -51.5q0 -27 -20 -50h73q32 0 47 16.5t15 44.5v143q0 33 -18 47.5t-44 14.5h-200v33h197q51 0 74.5 -26.5t23.5 -69.5v-141q0 -27 -8 -45t-22 -29.5t-32 -16t-37 -4.5h-95
q-8 0 -14 1t-13 6zM197 83q0 20 -14 34.5t-35 14.5q-20 0 -34 -14.5t-14 -34.5t14 -34.5t34 -14.5q21 0 35 14.5t14 34.5z" />
    <glyph glyph-name="uniFBAD" unicode="&#x6be;" horiz-adv-x="403" arabic-form="medial" 
d="M337 237q0 33 -18 47.5t-44 14.5h-200v33h197q51 0 74.5 -26.5t23.5 -69.5v-203h38v-33h-232q-8 0 -14 1t-13 6q-8 -5 -13.5 -6t-14.5 -1h-121v33h94q-19 22 -19 50q0 30 21.5 51.5t52.5 21.5t52 -21.5t21 -51.5q0 -27 -20 -50h135v204zM197 83q0 20 -14 34.5t-35 14.5
q-20 0 -34 -14.5t-14 -34.5t14 -34.5t34 -14.5q21 0 35 14.5t14 34.5z" />
    <glyph glyph-name="uniFBAF" unicode="&#x6d2;" horiz-adv-x="672" arabic-form="final" 
d="M153 0q-36 0 -54.5 -22t-18.5 -48q0 -29 18.5 -50.5t55.5 -21.5h468l-22 -33h-451q-21 0 -39.5 8t-32.5 21.5t-22 32.5t-8 42q0 22 8 41t22.5 33t33 22t39.5 8h527v-33h-524z" />
    <glyph glyph-name="uniFBB1" unicode="&#x6d3;" horiz-adv-x="671" arabic-form="final" 
d="M153 0q-36 0 -54.5 -22t-18.5 -48q0 -29 18.5 -50.5t55.5 -21.5h468l-22 -33h-451q-21 0 -39.5 8t-32.5 21.5t-22 32.5t-8 42q0 22 8 41t22.5 33t33 22t39.5 8h527v-33h-524zM246 219h-17q-14 0 -24.5 -7t-10.5 -23q0 -17 10.5 -23.5t22.5 -6.5h38v-19h-113v19h32
q-6 6 -8.5 14.5t-2.5 16.5q0 17 12 32.5t38 15.5h23v-19z" />
    <glyph glyph-name="uniFBE8" unicode="&#x649;" horiz-adv-x="197" arabic-form="initial" 
d="M53 33q37 0 51 16.5t14 47.5v235h33v-233q0 -48 -24 -73.5t-75 -25.5h-52v33h53z" />
    <glyph glyph-name="uniFBE9" unicode="&#x649;" horiz-adv-x="186" arabic-form="medial" 
d="M0 33h118v299h33v-299h39v-33h-190v33z" />
    <glyph glyph-name="uniFBFD" unicode="&#x6cc;" horiz-adv-x="477" arabic-form="final" 
d="M332 0v33h150v-33h-40v-27q0 -46 -20.5 -75.5t-50.5 -46t-64.5 -23t-62.5 -6.5q-31 0 -65.5 6.5t-64 23t-48.5 46t-19 74.5v188l33 23v-211q0 -38 17.5 -61t43 -35t54 -16t49.5 -4q28 0 57.5 6t53.5 19.5t39 36t15 55.5v27h-77z" />
    <glyph glyph-name="uniFBFE" unicode="&#x6cc;" horiz-adv-x="197" arabic-form="initial" 
d="M80 -153q0 -9 -7 -15.5t-16 -6.5t-15.5 6.5t-6.5 15.5t6.5 16t15.5 7t16 -7t7 -16zM156 -153q0 -9 -6.5 -15.5t-15.5 -6.5t-15.5 6.5t-6.5 15.5t6.5 16t15.5 7t15.5 -7t6.5 -16zM53 33q37 0 51 16.5t14 47.5v235h33v-233q0 -48 -24 -73.5t-75 -25.5h-52v33h53z" />
    <glyph glyph-name="uniFBFF" unicode="&#x6cc;" horiz-adv-x="186" arabic-form="medial" 
d="M0 33h118v299h33v-299h39v-33h-190v33zM80 -153q0 -9 -7 -15.5t-16 -6.5t-15.5 6.5t-6.5 15.5t6.5 16t15.5 7t16 -7t7 -16zM156 -153q0 -9 -6.5 -15.5t-15.5 -6.5t-15.5 6.5t-6.5 15.5t6.5 16t15.5 7t15.5 -7t6.5 -16z" />
    <glyph glyph-name="uniFC5E" unicode="&#xfc5e;" arabic-form="isolated" 
d="M195 603q0 -14 -5.5 -26.5t-28.5 -12.5h-104q-24 0 -29.5 12.5t-5.5 26.5v62h19v-66q0 -12 5 -14t13 -2h40v82h19v-82h40q7 0 12.5 2t5.5 14v66h19v-62zM113 748q-4 -3 -10 -6.5t-11 -3.5q-9 0 -21.5 15.5t-27.5 38.5l-24 -46l-19 9l17 32q5 10 11 16.5t17 6.5
q8 0 15.5 -7.5t14 -16l12 -16t10.5 -7.5q1 0 7 2l43 32q-15 17 -22 28.5t-7 25.5q0 20 15 33.5t34 13.5q21 0 35.5 -14t14.5 -34q0 -17 -9.5 -28t-29.5 -25l17 -17l-17 -13l-16 18zM165 809q9 8 19.5 16.5t10.5 22.5q0 12 -8 20.5t-20 8.5q-11 0 -19.5 -8t-8.5 -19t6.5 -20
t19.5 -21z" />
    <glyph glyph-name="uniFC5F" unicode="&#xfc5f;" arabic-form="isolated" 
d="M143 647h-113v19h113v-19zM143 564h-113v19h113v-19zM173 778q0 -14 -5.5 -26.5t-28.5 -12.5h-105q-23 0 -28.5 12.5t-5.5 26.5v62h19v-66q0 -12 5 -14t12 -2h40v82h20v-82h40q7 0 12 2t5 14v66h20v-62z" />
    <glyph glyph-name="uniFC60" unicode="&#xfc60;" arabic-form="isolated" 
d="M143 738h-113v19h113v-19zM173 603q0 -14 -5.5 -26.5t-28.5 -12.5h-105q-23 0 -28.5 12.5t-5.5 26.5v62h19v-66q0 -12 5 -14t12 -2h40v82h20v-82h40q7 0 12 2t5 14v66h20v-62z" />
    <glyph glyph-name="uniFC61" unicode="&#xfc61;" arabic-form="isolated" 
d="M173 603q0 -14 -5.5 -26.5t-28.5 -12.5h-105q-23 0 -28.5 12.5t-5.5 26.5v62h19v-66q0 -12 5 -14t12 -2h40v82h20v-82h40q7 0 12 2t5 14v66h20v-62zM114 816l20.5 17t10.5 23q0 11 -8.5 20t-20.5 9q-11 0 -19.5 -8t-8.5 -20q0 -11 9 -22t17 -19zM97 804q-11 11 -20 24.5
t-9 29.5q0 20 14.5 34t34.5 14t34.5 -14.5t14.5 -34.5t-12.5 -31.5t-26.5 -21.5l17 -17l-16 -13l-17 18q-23 -17 -47.5 -30t-50.5 -24l-8 16l47.5 23.5t44.5 26.5z" />
    <glyph glyph-name="uniFC62" unicode="&#xfc62;" arabic-form="isolated" 
d="M143 564h-113v19h113v-19zM173 696q0 -14 -5.5 -26.5t-28.5 -12.5h-105q-23 0 -28.5 12.5t-5.5 26.5v61h19v-65q0 -13 5 -15t12 -2h40v82h20v-82h40q7 0 12 2t5 15v65h20v-61z" />
    <glyph glyph-name="uniFC63" unicode="&#xfc63;" arabic-form="isolated" 
d="M173 603q0 -14 -5.5 -26.5t-28.5 -12.5h-105q-23 0 -28.5 12.5t-5.5 26.5v62h19v-66q0 -12 5 -14t12 -2h40v82h20v-82h40q7 0 12 2t5 14v66h20v-62zM76 738v138h20v-138h-20z" />
    <glyph glyph-name="uniFE82" unicode="&#x622;" horiz-adv-x="115" arabic-form="final" 
d="M80 467v-384q0 -23 11 -36t29 -13v-34q-34 0 -53.5 24.5t-19.5 59.5v383h33zM106 551q-7 -9 -16 -9q-6 0 -13.5 4t-15 8.5t-13.5 8.5t-9 4q-5 0 -11 -6l-14 -15l-12 12l16 17q9 11 18 11q5 0 12 -4t14.5 -9l13.5 -9t10 -4q5 0 11 6l15 16l12 -12z" />
    <glyph glyph-name="uniFE84" unicode="&#x623;" horiz-adv-x="115" arabic-form="final" 
d="M80 467v-384q0 -23 11 -36t29 -13v-34q-34 0 -53.5 24.5t-19.5 59.5v383h33zM100 643h-17q-14 0 -24.5 -7t-10.5 -23q0 -17 10.5 -23.5t22.5 -6.5h38v-19h-113v19h32q-6 6 -8.5 14.5t-2.5 16.5q0 17 12 32.5t38 15.5h23v-19z" />
    <glyph glyph-name="uniFE86" unicode="&#x624;" horiz-adv-x="303" arabic-form="final" 
d="M146 0q-54 0 -76.5 27t-22.5 67v143q0 51 27.5 73t71.5 22h121v-299h40v-33h-40v-36q0 -45 -15 -72.5t-37 -42t-47 -19.5t-46 -5h-8t-8 1l-22 32q7 -2 15 -2h15q22 0 43.5 4.5t38.5 16.5t27.5 32t10.5 52v39h-88zM234 299h-96q-32 0 -45 -16t-13 -45v-145q0 -26 14.5 -43
t43.5 -17h96v266zM186 519h-17q-14 0 -24.5 -7t-10.5 -23q0 -17 10.5 -23.5t22.5 -6.5h38v-19h-113v19h32q-6 6 -8.5 14.5t-2.5 16.5q0 17 12 32.5t38 15.5h23v-19z" />
    <glyph glyph-name="uniFE88" unicode="&#x625;" horiz-adv-x="115" arabic-form="final" 
d="M101 -96h-17q-14 0 -24.5 -7t-10.5 -23q0 -17 10.5 -23.5t22.5 -6.5h38v-19h-113v19h32q-6 6 -8.5 14.5t-2.5 16.5q0 17 12 32.5t38 15.5h23v-19zM80 467v-384q0 -23 11 -36t29 -13v-34q-34 0 -53.5 24.5t-19.5 59.5v383h33z" />
    <glyph glyph-name="uniFE8A" unicode="&#x626;" horiz-adv-x="477" arabic-form="final" 
d="M332 0v33h150v-33h-40v-27q0 -46 -20.5 -75.5t-50.5 -46t-64.5 -23t-62.5 -6.5q-31 0 -65.5 6.5t-64 23t-48.5 46t-19 74.5v188l33 23v-211q0 -38 17.5 -61t43 -35t54 -16t49.5 -4q28 0 57.5 6t53.5 19.5t39 36t15 55.5v27h-77zM106 359h-17q-14 0 -24.5 -7t-10.5 -23
q0 -17 10.5 -23.5t22.5 -6.5h38v-19h-113v19h32q-6 6 -8.5 14.5t-2.5 16.5q0 17 12 32.5t38 15.5h23v-19z" />
    <glyph glyph-name="uniFE8B" unicode="&#x626;" horiz-adv-x="197" arabic-form="initial" 
d="M53 33q37 0 51 16.5t14 47.5v235h33v-233q0 -48 -24 -73.5t-75 -25.5h-52v33h53zM132 519h-17q-14 0 -24.5 -7t-10.5 -23q0 -17 10.5 -23.5t22.5 -6.5h38v-19h-113v19h32q-6 6 -8.5 14.5t-2.5 16.5q0 17 12 32.5t38 15.5h23v-19z" />
    <glyph glyph-name="uniFE8C" unicode="&#x626;" horiz-adv-x="186" arabic-form="medial" 
d="M0 33h118v299h33v-299h39v-33h-190v33zM132 519h-17q-14 0 -24.5 -7t-10.5 -23q0 -17 10.5 -23.5t22.5 -6.5h38v-19h-113v19h32q-6 6 -8.5 14.5t-2.5 16.5q0 17 12 32.5t38 15.5h23v-19z" />
    <glyph glyph-name="uniFE8E" unicode="&#x627;" horiz-adv-x="115" arabic-form="final" 
d="M80 467v-384q0 -23 11 -36t29 -13v-34q-34 0 -53.5 24.5t-19.5 59.5v383h33z" />
    <glyph glyph-name="uniFE90" unicode="&#x628;" horiz-adv-x="589" arabic-form="final" 
d="M331 -153q0 -9 -6.5 -15.5t-15.5 -6.5t-15.5 6.5t-6.5 15.5t6.5 16t15.5 7t15.5 -7t6.5 -16zM521 332h33v-299h40v-33h-453q-51 0 -72.5 26.5t-21.5 71.5v126l33 22v-150q0 -35 16.5 -49t48.5 -14h376v299z" />
    <glyph glyph-name="uniFE91" unicode="&#x628;" horiz-adv-x="197" arabic-form="initial" 
d="M150 -153q0 -9 -6 -15.5t-15 -6.5t-16 6.5t-7 15.5t7 16t16 7t15 -7t6 -16zM53 33q37 0 51 16.5t14 47.5v235h33v-233q0 -48 -24 -73.5t-75 -25.5h-52v33h53z" />
    <glyph glyph-name="uniFE92" unicode="&#x628;" horiz-adv-x="186" arabic-form="medial" 
d="M0 33h118v299h33v-299h39v-33h-190v33zM156 -153q0 -9 -6.5 -15.5t-15.5 -6.5t-15.5 6.5t-6.5 15.5t6.5 16t15.5 7t15.5 -7t6.5 -16z" />
    <glyph glyph-name="uniFE94" unicode="&#x629;" horiz-adv-x="303" arabic-form="final" 
d="M142 461q0 -9 -6.5 -15t-15.5 -6t-16 6t-7 15q0 10 7 16.5t16 6.5t15.5 -6.5t6.5 -16.5zM218 461q0 -9 -6 -15t-15 -6q-10 0 -16.5 6t-6.5 15q0 10 6.5 16.5t16.5 6.5q9 0 15 -6.5t6 -16.5zM144 0q-53 0 -75 27.5t-22 67.5v142q0 52 28.5 73.5t71.5 21.5h120v-299h40v-33
h-73v20l-25 -20h-65zM234 299h-92q-35 0 -48.5 -17.5t-13.5 -46.5v-141q0 -61 61 -61h93v266z" />
    <glyph glyph-name="uniFE96" unicode="&#x62a;" horiz-adv-x="589" arabic-form="final" 
d="M293 461q0 -9 -6.5 -15t-16.5 -6q-9 0 -15.5 6t-6.5 15q0 10 6.5 16.5t15.5 6.5q10 0 16.5 -6.5t6.5 -16.5zM369 461q0 -9 -6.5 -15t-15.5 -6t-15.5 6t-6.5 15q0 10 6.5 16.5t15.5 6.5t15.5 -6.5t6.5 -16.5zM521 332h33v-299h40v-33h-453q-51 0 -72.5 26.5t-21.5 71.5
v126l33 22v-150q0 -35 16.5 -49t48.5 -14h376v299z" />
    <glyph glyph-name="uniFE97" unicode="&#x62a;" horiz-adv-x="197" arabic-form="initial" 
d="M80 461q0 -9 -7 -15t-16 -6t-15.5 6t-6.5 15q0 10 6.5 16.5t15.5 6.5t16 -6.5t7 -16.5zM156 461q0 -9 -6.5 -15t-15.5 -6t-15.5 6t-6.5 15q0 10 6.5 16.5t15.5 6.5t15.5 -6.5t6.5 -16.5zM53 33q37 0 51 16.5t14 47.5v235h33v-233q0 -48 -24 -73.5t-75 -25.5h-52v33h53z
" />
    <glyph glyph-name="uniFE98" unicode="&#x62a;" horiz-adv-x="186" arabic-form="medial" 
d="M0 33h118v299h33v-299h39v-33h-190v33zM80 461q0 -9 -7 -15t-16 -6t-15.5 6t-6.5 15q0 10 6.5 16.5t15.5 6.5t16 -6.5t7 -16.5zM156 461q0 -9 -6.5 -15t-15.5 -6t-15.5 6t-6.5 15q0 10 6.5 16.5t15.5 6.5t15.5 -6.5t6.5 -16.5z" />
    <glyph glyph-name="uniFE9A" unicode="&#x62b;" horiz-adv-x="589" arabic-form="final" 
d="M293 461q0 -9 -6.5 -15t-16.5 -6q-9 0 -15.5 6t-6.5 15q0 10 6.5 16.5t15.5 6.5q10 0 16.5 -6.5t6.5 -16.5zM369 461q0 -9 -6.5 -15t-15.5 -6t-15.5 6t-6.5 15q0 10 6.5 16.5t15.5 6.5t15.5 -6.5t6.5 -16.5zM326 527q0 -7 -5 -12t-12 -5t-12.5 5t-5.5 12q0 8 5.5 13
t12.5 5t12 -5t5 -13zM521 332h33v-299h40v-33h-453q-51 0 -72.5 26.5t-21.5 71.5v126l33 22v-150q0 -35 16.5 -49t48.5 -14h376v299z" />
    <glyph glyph-name="uniFE9B" unicode="&#x62b;" horiz-adv-x="203" arabic-form="initial" 
d="M80 461q0 -9 -7 -15t-16 -6t-15.5 6t-6.5 15q0 10 6.5 16.5t15.5 6.5t16 -6.5t7 -16.5zM156 461q0 -9 -6.5 -15t-15.5 -6t-15.5 6t-6.5 15t6.5 16t15.5 7t15.5 -6.5t6.5 -16.5zM113 527q0 -7 -4.5 -12t-12.5 -5t-13 5t-5 12q0 8 5 13t13 5t12.5 -5t4.5 -13zM53 33
q37 0 51 16.5t14 47.5v235h33v-233q0 -48 -24 -73.5t-75 -25.5h-52v33h53z" />
    <glyph glyph-name="uniFE9C" unicode="&#x62b;" horiz-adv-x="186" arabic-form="medial" 
d="M80 461q0 -9 -7 -15t-16 -6t-15.5 6t-6.5 15q0 10 6.5 16.5t15.5 6.5t16 -6.5t7 -16.5zM156 461q0 -9 -6.5 -15t-15.5 -6t-15.5 6t-6.5 15q0 10 6.5 16.5t15.5 6.5t15.5 -6.5t6.5 -16.5zM113 527q0 -7 -4.5 -12t-12.5 -5t-13 5t-5 12q0 8 5 13t13 5t12.5 -5t4.5 -13z
M0 33h118v299h33v-299h39v-33h-190v33z" />
    <glyph glyph-name="uniFE9E" unicode="&#x62c;" horiz-adv-x="368" arabic-form="final" 
d="M333 -156q0 -9 -6.5 -16t-15.5 -7t-15.5 7t-6.5 16t6.5 15.5t15.5 6.5t15.5 -6.5t6.5 -15.5zM300 238q0 32 -18 46.5t-44 14.5h-126v33h122q51 0 75 -26t24 -68v-205h40v-33h-218q-35 0 -55.5 -21t-20.5 -50t20.5 -50t54.5 -21h45l-21 -33h-25q-47 0 -77 29.5t-30 74.5
q0 22 9 41.5t23.5 33t33 21.5t38.5 8h150v205z" />
    <glyph glyph-name="uniFE9F" unicode="&#x62c;" horiz-adv-x="343" arabic-form="initial" 
d="M190 -153q0 -9 -6.5 -15.5t-15.5 -6.5q-10 0 -16 6.5t-6 15.5t6 16t16 7q9 0 15.5 -7t6.5 -16zM0 33h201q33 0 47.5 16t14.5 45v144q0 32 -18 46.5t-44 14.5h-126v33h122q51 0 75 -26t24 -68v-143q0 -49 -26.5 -72t-74.5 -23h-195v33z" />
    <glyph glyph-name="uniFEA0" unicode="&#x62c;" horiz-adv-x="332" arabic-form="medial" 
d="M190 -153q0 -9 -6.5 -15.5t-15.5 -6.5q-10 0 -16 6.5t-6 15.5t6 16t16 7q9 0 15.5 -7t6.5 -16zM263 238q0 32 -18 46.5t-44 14.5h-126v33h122q51 0 75 -26t24 -68v-205h40v-33h-336v33h263v205z" />
    <glyph glyph-name="uniFEA2" unicode="&#x62d;" horiz-adv-x="368" arabic-form="final" 
d="M300 238q0 32 -18 46.5t-44 14.5h-126v33h122q51 0 75 -26t24 -68v-205h40v-33h-218q-35 0 -55.5 -21t-20.5 -50t20.5 -50t54.5 -21h178l-21 -33h-158q-47 0 -77 29.5t-30 74.5q0 22 9 41.5t23.5 33t33 21.5t38.5 8h150v205z" />
    <glyph glyph-name="uniFEA3" unicode="&#x62d;" horiz-adv-x="343" arabic-form="initial" 
d="M0 33h201q33 0 47.5 16t14.5 45v144q0 32 -18 46.5t-44 14.5h-126v33h122q51 0 75 -26t24 -68v-143q0 -49 -26.5 -72t-74.5 -23h-195v33z" />
    <glyph glyph-name="uniFEA4" unicode="&#x62d;" horiz-adv-x="332" arabic-form="medial" 
d="M263 238q0 32 -18 46.5t-44 14.5h-126v33h122q51 0 75 -26t24 -68v-205h40v-33h-336v33h263v205z" />
    <glyph glyph-name="uniFEA6" unicode="&#x62e;" horiz-adv-x="368" arabic-form="final" 
d="M227 462q0 -9 -7 -15.5t-16 -6.5t-15.5 6.5t-6.5 15.5t6.5 15.5t15.5 6.5t16 -6.5t7 -15.5zM300 238q0 32 -18 46.5t-44 14.5h-126v33h122q51 0 75 -26t24 -68v-205h40v-33h-218q-35 0 -55.5 -21t-20.5 -50t20.5 -50t54.5 -21h178l-21 -33h-158q-47 0 -77 29.5t-30 74.5
q0 22 9 41.5t23.5 33t33 21.5t38.5 8h150v205z" />
    <glyph glyph-name="uniFEA7" unicode="&#x62e;" horiz-adv-x="343" arabic-form="initial" 
d="M190 461q0 -9 -6.5 -15t-15.5 -6q-10 0 -16 6t-6 15q0 10 6 16.5t16 6.5q9 0 15.5 -6.5t6.5 -16.5zM0 33h201q33 0 47.5 16t14.5 45v144q0 32 -18 46.5t-44 14.5h-126v33h122q51 0 75 -26t24 -68v-143q0 -49 -26.5 -72t-74.5 -23h-195v33z" />
    <glyph glyph-name="uniFEA8" unicode="&#x62e;" horiz-adv-x="332" arabic-form="medial" 
d="M190 461q0 -9 -6.5 -15t-15.5 -6q-10 0 -16 6t-6 15q0 10 6 16.5t16 6.5q9 0 15.5 -6.5t6.5 -16.5zM263 238q0 32 -18 46.5t-44 14.5h-126v33h122q51 0 75 -26t24 -68v-205h40v-33h-336v33h263v205z" />
    <glyph glyph-name="uniFEAA" unicode="&#x62f;" horiz-adv-x="318" arabic-form="final" 
d="M249 189q0 59 -29.5 84.5t-76.5 25.5h-41v33h40q39 0 65.5 -11.5t43.5 -31t24.5 -44t7.5 -51.5v-161h39v-33h-275v33h202v156z" />
    <glyph glyph-name="uniFEAC" unicode="&#x630;" horiz-adv-x="318" arabic-form="final" 
d="M146 461q0 -9 -6.5 -15t-14.5 -6q-9 0 -16 6t-7 15q0 10 7 16.5t16 6.5q8 0 14.5 -6.5t6.5 -16.5zM249 189q0 59 -29.5 84.5t-76.5 25.5h-41v33h40q39 0 65.5 -11.5t43.5 -31t24.5 -44t7.5 -51.5v-161h39v-33h-275v33h202v156z" />
    <glyph glyph-name="uniFEAE" unicode="&#x631;" horiz-adv-x="155" arabic-form="final" 
d="M120 33h39v-33h-39v-39q0 -55 -20 -85.5t-61 -50.5l-22 29q19 10 32.5 19t21.5 20t11.5 25t3.5 34v380h34v-299z" />
    <glyph glyph-name="uniFEB0" unicode="&#x632;" horiz-adv-x="155" arabic-form="final" 
d="M125 461q0 -9 -6.5 -15t-15.5 -6t-15.5 6t-6.5 15q0 10 6.5 16.5t15.5 6.5t15.5 -6.5t6.5 -16.5zM120 33h39v-33h-39v-39q0 -55 -20 -85.5t-61 -50.5l-22 29q19 10 32.5 19t21.5 20t11.5 25t3.5 34v380h34v-299z" />
    <glyph glyph-name="uniFEB2" unicode="&#x633;" horiz-adv-x="853" arabic-form="final" 
d="M785 332h33v-299h39v-33h-415v-29q0 -44 -19.5 -72.5t-48.5 -45.5t-64 -24t-66 -7q-34 0 -69 7.5t-63.5 24.5t-46.5 46t-18 72v188l33 23v-211q0 -33 15 -55.5t38.5 -36t52.5 -19t58 -5.5q33 0 62.5 6.5t52.5 20t36.5 35.5t13.5 53v361h33v-299h154v299h34v-299h155v299z
" />
    <glyph glyph-name="uniFEB3" unicode="&#x633;" horiz-adv-x="645" arabic-form="initial" 
d="M189 33v299h33v-299h154v299h34v-299h90q38 0 51.5 17.5t13.5 48.5v233h33v-231q0 -48 -23 -74.5t-77 -26.5h-498v33h189z" />
    <glyph glyph-name="uniFEB4" unicode="&#x633;" horiz-adv-x="633" arabic-form="medial" 
d="M0 33h190v299h33v-299h154v299h34v-299h155v299h32v-299h40v-33h-638v33z" />
    <glyph glyph-name="uniFEB6" unicode="&#x634;" horiz-adv-x="853" arabic-form="final" 
d="M598 461q0 -9 -6.5 -15t-16.5 -6q-9 0 -15 6t-6 15q0 10 6 16.5t15 6.5q10 0 16.5 -6.5t6.5 -16.5zM674 461q0 -9 -6.5 -15t-15.5 -6t-15.5 6t-6.5 15t6.5 16t15.5 7t15.5 -6.5t6.5 -16.5zM631 527q0 -7 -4.5 -12t-12.5 -5q-7 0 -12.5 5t-5.5 12q0 8 5.5 13t12.5 5
q8 0 12.5 -5t4.5 -13zM785 332h33v-299h39v-33h-415v-29q0 -44 -19.5 -72.5t-48.5 -45.5t-64 -24t-66 -7q-34 0 -69 7.5t-63.5 24.5t-46.5 46t-18 72v188l33 23v-211q0 -33 15 -55.5t38.5 -36t52.5 -19t58 -5.5q33 0 62.5 6.5t52.5 20t36.5 35.5t13.5 53v361h33v-299h154
v299h34v-299h155v299z" />
    <glyph glyph-name="uniFEB7" unicode="&#x634;" horiz-adv-x="645" arabic-form="initial" 
d="M379 461q0 -9 -6.5 -15t-16.5 -6q-9 0 -15 6t-6 15q0 10 6 16.5t15 6.5q10 0 16.5 -6.5t6.5 -16.5zM455 461q0 -9 -6.5 -15t-15.5 -6t-15.5 6t-6.5 15t6.5 16t15.5 7t15.5 -6.5t6.5 -16.5zM412 527q0 -7 -4.5 -12t-12.5 -5q-7 0 -12.5 5t-5.5 12q0 8 5.5 13t12.5 5
q8 0 12.5 -5t4.5 -13zM189 33v299h33v-299h154v299h34v-299h90q38 0 51.5 17.5t13.5 48.5v233h33v-231q0 -48 -23 -74.5t-77 -26.5h-498v33h189z" />
    <glyph glyph-name="uniFEB8" unicode="&#x634;" horiz-adv-x="633" arabic-form="medial" 
d="M0 33h190v299h33v-299h154v299h34v-299h155v299h32v-299h40v-33h-638v33zM379 461q0 -9 -6.5 -15t-16.5 -6q-9 0 -15 6t-6 15q0 10 6 16.5t15 6.5q10 0 16.5 -6.5t6.5 -16.5zM455 461q0 -9 -6.5 -15t-15.5 -6t-15.5 6t-6.5 15t6.5 16t15.5 7t15.5 -6.5t6.5 -16.5z
M412 527q0 -7 -4.5 -12t-12.5 -5q-7 0 -12.5 5t-5.5 12q0 8 5.5 13t12.5 5q8 0 12.5 -5t4.5 -13z" />
    <glyph glyph-name="uniFEBA" unicode="&#x635;" horiz-adv-x="769" arabic-form="final" 
d="M701 250q0 18 -11 35.5t-42 17.5q-11 0 -19.5 -2.5l-18.5 -5.5l-135 -45q-21 -7 -33 -19t-12 -37v-161h271v217zM773 33v-33h-343v-29q0 -44 -18.5 -72.5t-46.5 -45.5t-62 -24t-65 -7q-34 0 -68 7.5t-61.5 24.5t-44.5 46t-17 72v188l33 23v-211q0 -33 14 -55.5t36.5 -36
t50.5 -19t57 -5.5q33 0 61.5 6.5t50.5 20t34.5 35.5t12.5 53v361h33v-69q9 9 26 14l156 54q18 6 35 6q35 0 61 -23.5t26 -64.5v-216h39z" />
    <glyph glyph-name="uniFEBB" unicode="&#x635;" horiz-adv-x="459" arabic-form="initial" 
d="M75 332h33v-69q9 9 26 14l156 54q18 6 35 6q35 0 61 -23.5t26 -64.5v-151q0 -51 -25.5 -74.5t-70.5 -23.5h-208v-45l-33 -17v62h-75v33h75v299zM317 33q35 0 48.5 18t13.5 46v153q0 18 -11 35.5t-42 17.5q-11 0 -19.5 -2.5l-18.5 -5.5l-135 -45q-21 -7 -33 -19t-12 -37
v-161h209z" />
    <glyph glyph-name="uniFEBC" unicode="&#x635;" horiz-adv-x="448" arabic-form="medial" 
d="M452 33v-33h-344v-45l-33 -17v62h-75v33h75v299h33v-69q9 9 26 14l156 54q18 6 35 6q35 0 61 -23.5t26 -64.5v-216h40zM379 250q0 18 -11 35.5t-42 17.5q-11 0 -19.5 -2.5l-18.5 -5.5l-135 -45q-21 -7 -33 -19t-12 -37v-161h271v217z" />
    <glyph glyph-name="uniFEBE" unicode="&#x636;" horiz-adv-x="769" arabic-form="final" 
d="M587 461q0 -9 -6.5 -15t-15.5 -6t-16 6t-7 15q0 10 7 16.5t16 6.5t15.5 -6.5t6.5 -16.5zM701 250q0 18 -11 35.5t-42 17.5q-11 0 -19.5 -2.5l-18.5 -5.5l-135 -45q-21 -7 -33 -19t-12 -37v-161h271v217zM773 33v-33h-343v-29q0 -44 -18.5 -72.5t-46.5 -45.5t-62 -24
t-65 -7q-34 0 -68 7.5t-61.5 24.5t-44.5 46t-17 72v188l33 23v-211q0 -33 14 -55.5t36.5 -36t50.5 -19t57 -5.5q33 0 61.5 6.5t50.5 20t34.5 35.5t12.5 53v361h33v-69q9 9 26 14l156 54q18 6 35 6q35 0 61 -23.5t26 -64.5v-216h39z" />
    <glyph glyph-name="uniFEBF" unicode="&#x636;" horiz-adv-x="459" arabic-form="initial" 
d="M266 461q0 -9 -7 -15t-15 -6q-9 0 -16 6t-7 15q0 10 7 16.5t16 6.5q8 0 15 -6.5t7 -16.5zM75 332h33v-69q9 9 26 14l156 54q18 6 35 6q35 0 61 -23.5t26 -64.5v-151q0 -51 -25.5 -74.5t-70.5 -23.5h-208v-45l-33 -17v62h-75v33h75v299zM317 33q35 0 48.5 18t13.5 46v153
q0 18 -11 35.5t-42 17.5q-11 0 -19.5 -2.5l-18.5 -5.5l-135 -45q-21 -7 -33 -19t-12 -37v-161h209z" />
    <glyph glyph-name="uniFEC0" unicode="&#x636;" horiz-adv-x="448" arabic-form="medial" 
d="M266 461q0 -9 -7 -15t-15 -6q-9 0 -16 6t-7 15q0 10 7 16.5t16 6.5q8 0 15 -6.5t7 -16.5zM452 33v-33h-344v-45l-33 -17v62h-75v33h75v299h33v-69q9 9 26 14l156 54q18 6 35 6q35 0 61 -23.5t26 -64.5v-216h40zM379 250q0 18 -11 35.5t-42 17.5q-11 0 -19.5 -2.5
l-18.5 -5.5l-135 -45q-21 -7 -33 -19t-12 -37v-161h271v217z" />
    <glyph glyph-name="uniFEC2" unicode="&#x637;" horiz-adv-x="503" arabic-form="final" 
d="M62 33h68v434h33v-204q9 9 26 14l156 54q18 6 35 6q35 0 61 -23.5t26 -64.5v-216h40v-33h-344v-45l-33 -17v62h-83zM434 250q0 18 -11 35.5t-42 17.5q-11 0 -19.5 -2.5l-18.5 -5.5l-135 -45q-21 -7 -33 -19t-12 -37v-161h271v217z" />
    <glyph glyph-name="uniFEC3" unicode="&#x637;" horiz-adv-x="459" arabic-form="initial" 
d="M75 33v434h33v-204q9 9 26 14l156 54q18 6 35 6q35 0 61 -23.5t26 -64.5v-151q0 -51 -25.5 -74.5t-70.5 -23.5h-208v-45l-33 -17v62h-75v33h75zM317 33q35 0 48.5 18t13.5 46v153q0 18 -11 35.5t-42 17.5q-11 0 -19.5 -2.5l-18.5 -5.5l-135 -45q-21 -7 -33 -19t-12 -37
v-161h209z" />
    <glyph glyph-name="uniFEC4" unicode="&#x637;" horiz-adv-x="448" arabic-form="medial" 
d="M75 33v434h33v-204q9 9 26 14l156 54q18 6 35 6q35 0 61 -23.5t26 -64.5v-216h40v-33h-344v-45l-33 -17v62h-75v33h75zM379 250q0 18 -11 35.5t-42 17.5q-11 0 -19.5 -2.5l-18.5 -5.5l-135 -45q-21 -7 -33 -19t-12 -37v-161h271v217z" />
    <glyph glyph-name="uniFEC6" unicode="&#x638;" horiz-adv-x="503" arabic-form="final" 
d="M321 461q0 -9 -6.5 -15t-16.5 -6q-9 0 -15.5 6t-6.5 15q0 10 6.5 16.5t15.5 6.5q10 0 16.5 -6.5t6.5 -16.5zM62 33h68v434h33v-204q9 9 26 14l156 54q18 6 35 6q35 0 61 -23.5t26 -64.5v-216h40v-33h-344v-45l-33 -17v62h-83zM434 250q0 18 -11 35.5t-42 17.5
q-11 0 -19.5 -2.5l-18.5 -5.5l-135 -45q-21 -7 -33 -19t-12 -37v-161h271v217z" />
    <glyph glyph-name="uniFEC7" unicode="&#x638;" horiz-adv-x="459" arabic-form="initial" 
d="M266 461q0 -9 -7 -15t-15 -6q-9 0 -16 6t-7 15q0 10 7 16.5t16 6.5q8 0 15 -6.5t7 -16.5zM75 33v434h33v-204q9 9 26 14l156 54q18 6 35 6q35 0 61 -23.5t26 -64.5v-151q0 -51 -25.5 -74.5t-70.5 -23.5h-208v-45l-33 -17v62h-75v33h75zM317 33q35 0 48.5 18t13.5 46v153
q0 18 -11 35.5t-42 17.5q-11 0 -19.5 -2.5l-18.5 -5.5l-135 -45q-21 -7 -33 -19t-12 -37v-161h209z" />
    <glyph glyph-name="uniFEC8" unicode="&#x638;" horiz-adv-x="448" arabic-form="medial" 
d="M266 461q0 -9 -7 -15t-15 -6q-9 0 -16 6t-7 15q0 10 7 16.5t16 6.5q8 0 15 -6.5t7 -16.5zM75 33v434h33v-204q9 9 26 14l156 54q18 6 35 6q35 0 61 -23.5t26 -64.5v-216h40v-33h-344v-45l-33 -17v62h-75v33h75zM379 250q0 18 -11 35.5t-42 17.5q-11 0 -19.5 -2.5
l-18.5 -5.5l-135 -45q-21 -7 -33 -19t-12 -37v-161h271v217z" />
    <glyph glyph-name="uniFECA" unicode="&#x639;" horiz-adv-x="400" arabic-form="final" 
d="M241 0q-11 0 -16 3t-12 10q-7 -7 -13 -10t-16 -3h-27q-33 0 -55 -18t-22 -53q0 -34 22 -52.5t53 -18.5h178l-22 -33h-156q-24 0 -44 8t-34.5 22.5t-22.5 33.5t-8 41q0 18 6.5 36.5t21 33.5t36.5 24t52 9h32q-26 40 -60.5 78.5t-72.5 71.5v14q0 32 13 58t34 44t48.5 28
t56.5 10q28 0 55.5 -9.5t49 -27.5t34.5 -44t13 -59v-14q-38 -32 -72 -70t-62 -80h174v-33h-164zM332 198q-1 24 -11.5 43.5t-27 33.5t-37.5 21.5t-43 7.5t-43.5 -7.5t-38 -21.5t-27 -33.5t-10.5 -43.5q34 -29 63.5 -64t55.5 -70q26 36 55 70t64 64z" />
    <glyph glyph-name="uniFECB" unicode="&#x639;" horiz-adv-x="390" arabic-form="initial" 
d="M0 33h94q-13 14 -16 30t-3 35v140q0 50 28 72t70 22h123v-33h-127q-32 0 -46.5 -16.5t-14.5 -44.5v-141q0 -29 13.5 -46.5t47.5 -17.5h174v-33h-343v33z" />
    <glyph glyph-name="uniFECC" unicode="&#x639;" horiz-adv-x="414" arabic-form="medial" 
d="M208 33q-26 40 -60.5 78.5t-72.5 71.5v14q0 32 13 58t34 44t48.5 28t56.5 10q28 0 55.5 -9.5t49 -27.5t34.5 -44t13 -59v-14q-38 -32 -72 -70t-62 -80h174v-33h-164q-11 0 -16 3t-12 10q-7 -7 -13 -10t-16 -3h-198v33h208zM346 198q-1 24 -11.5 43.5t-27 33.5t-37.5 21.5
t-43 7.5t-43.5 -7.5t-38 -21.5t-27 -33.5t-10.5 -43.5q34 -29 63.5 -64t55.5 -70q26 36 55 70t64 64z" />
    <glyph glyph-name="uniFECE" unicode="&#x63a;" horiz-adv-x="400" arabic-form="final" 
d="M191 461q0 10 6.5 16.5t15.5 6.5t15.5 -6.5t6.5 -16.5q0 -9 -6.5 -15t-15.5 -6t-15.5 6t-6.5 15zM241 0q-11 0 -16 3t-12 10q-7 -7 -13 -10t-16 -3h-27q-33 0 -55 -18t-22 -53q0 -34 22 -52.5t53 -18.5h178l-22 -33h-156q-24 0 -44 8t-34.5 22.5t-22.5 33.5t-8 41
q0 18 6.5 36.5t21 33.5t36.5 24t52 9h32q-26 40 -60.5 78.5t-72.5 71.5v14q0 32 13 58t34 44t48.5 28t56.5 10q28 0 55.5 -9.5t49 -27.5t34.5 -44t13 -59v-14q-38 -32 -72 -70t-62 -80h174v-33h-164zM332 198q-1 24 -11.5 43.5t-27 33.5t-37.5 21.5t-43 7.5t-43.5 -7.5
t-38 -21.5t-27 -33.5t-10.5 -43.5q34 -29 63.5 -64t55.5 -70q26 36 55 70t64 64z" />
    <glyph glyph-name="uniFECF" unicode="&#x63a;" horiz-adv-x="390" arabic-form="initial" 
d="M181 461q0 10 6.5 16.5t15.5 6.5q10 0 16 -6.5t6 -16.5q0 -9 -6 -15t-16 -6q-9 0 -15.5 6t-6.5 15zM0 33h94q-13 14 -16 30t-3 35v140q0 50 28 72t70 22h123v-33h-127q-32 0 -46.5 -16.5t-14.5 -44.5v-141q0 -29 13.5 -46.5t47.5 -17.5h174v-33h-343v33z" />
    <glyph glyph-name="uniFED0" unicode="&#x63a;" horiz-adv-x="414" arabic-form="medial" 
d="M205 461q0 10 6.5 16.5t15.5 6.5t15.5 -6.5t6.5 -16.5q0 -9 -6.5 -15t-15.5 -6t-15.5 6t-6.5 15zM208 33q-26 40 -60.5 78.5t-72.5 71.5v14q0 32 13 58t34 44t48.5 28t56.5 10q28 0 55.5 -9.5t49 -27.5t34.5 -44t13 -59v-14q-38 -32 -72 -70t-62 -80h174v-33h-164
q-11 0 -16 3t-12 10q-7 -7 -13 -10t-16 -3h-198v33h208zM346 198q-1 24 -11.5 43.5t-27 33.5t-37.5 21.5t-43 7.5t-43.5 -7.5t-38 -21.5t-27 -33.5t-10.5 -43.5q34 -29 63.5 -64t55.5 -70q26 36 55 70t64 64z" />
    <glyph glyph-name="uniFED2" unicode="&#x641;" horiz-adv-x="589" arabic-form="final" 
d="M466 461q0 -9 -6.5 -15t-15.5 -6t-15.5 6t-6.5 15q0 10 6.5 16.5t15.5 6.5t15.5 -6.5t6.5 -16.5zM594 33v-33h-451q-28 0 -46.5 8t-29.5 21.5t-15.5 31t-4.5 36.5v127l33 22v-149q0 -64 61 -64h193v203q0 51 27.5 73.5t73.5 22.5h119v-299h40zM521 299h-92
q-33 0 -47.5 -16t-14.5 -48v-202h154v266z" />
    <glyph glyph-name="uniFED3" unicode="&#x641;" horiz-adv-x="342" arabic-form="initial" 
d="M207 461q0 -9 -6.5 -15t-15.5 -6t-16 6t-7 15q0 10 7 16.5t16 6.5t15.5 -6.5t6.5 -16.5zM0 0v33h75v203q0 51 27.5 73.5t73.5 22.5h119v-237q0 -46 -24 -70.5t-75 -24.5h-196zM197 33q65 0 65 61v205h-92q-33 0 -47.5 -16t-14.5 -48v-202h89z" />
    <glyph glyph-name="uniFED4" unicode="&#x641;" horiz-adv-x="330" arabic-form="medial" 
d="M207 461q0 -9 -6.5 -15t-15.5 -6t-16 6t-7 15q0 10 7 16.5t16 6.5t15.5 -6.5t6.5 -16.5zM335 33v-33h-335v33h75v203q0 51 27.5 73.5t73.5 22.5h119v-299h40zM262 299h-92q-33 0 -47.5 -16t-14.5 -48v-202h154v266z" />
    <glyph glyph-name="uniFED6" unicode="&#x642;" horiz-adv-x="477" arabic-form="final" 
d="M316 461q0 -9 -6.5 -15t-15.5 -6q-10 0 -16 6t-6 15q0 10 6 16.5t16 6.5q9 0 15.5 -6.5t6.5 -16.5zM393 461q0 -9 -6.5 -15t-16.5 -6q-9 0 -15 6t-6 15q0 10 6 16.5t15 6.5t16 -6.5t7 -16.5zM442 33h40v-33h-40v-27q0 -46 -20.5 -75.5t-50.5 -46t-64.5 -23t-62.5 -6.5
q-31 0 -65.5 6.5t-64 23t-48.5 46t-19 74.5v188l33 23v-211q0 -38 17.5 -61t43 -35t54 -16t49.5 -4q28 0 57.5 6t53.5 19.5t39 36t15 55.5v27h-89q-51 0 -75 26.5t-24 71.5v136q0 46 24.5 72t74.5 26h122v-299zM409 299h-95q-32 0 -46 -18t-14 -47v-137q0 -34 16 -49t44 -15
h95v266z" />
    <glyph glyph-name="uniFED7" unicode="&#x642;" horiz-adv-x="342" arabic-form="initial" 
d="M169 461q0 -9 -6 -15t-15 -6q-10 0 -16.5 6t-6.5 15q0 10 6.5 16.5t16.5 6.5q9 0 15 -6.5t6 -16.5zM246 461q0 -9 -6.5 -15t-15.5 -6t-15.5 6t-6.5 15q0 10 6.5 16.5t15.5 6.5t15.5 -6.5t6.5 -16.5zM0 0v33h75v203q0 51 27.5 73.5t73.5 22.5h119v-237q0 -46 -24 -70.5
t-75 -24.5h-196zM197 33q65 0 65 61v205h-92q-33 0 -47.5 -16t-14.5 -48v-202h89z" />
    <glyph glyph-name="uniFED8" unicode="&#x642;" horiz-adv-x="330" arabic-form="medial" 
d="M169 461q0 -9 -6 -15t-15 -6q-10 0 -16.5 6t-6.5 15q0 10 6.5 16.5t16.5 6.5q9 0 15 -6.5t6 -16.5zM246 461q0 -9 -6.5 -15t-15.5 -6t-15.5 6t-6.5 15q0 10 6.5 16.5t15.5 6.5t15.5 -6.5t6.5 -16.5zM335 33v-33h-335v33h75v203q0 51 27.5 73.5t73.5 22.5h119v-299h40z
M262 299h-92q-33 0 -47.5 -16t-14.5 -48v-202h154v266z" />
    <glyph glyph-name="uniFEDA" unicode="&#x643;" horiz-adv-x="589" arabic-form="final" 
d="M521 467h33v-434h40v-33h-453q-51 0 -72.5 26.5t-21.5 71.5v126l33 22v-150q0 -35 16.5 -49t48.5 -14h376v434zM332 306h-17q-14 0 -24.5 -7t-10.5 -23q0 -17 10.5 -23.5t22.5 -6.5h38v-19h-113v19h32q-6 6 -8.5 14.5t-2.5 16.5q0 17 12 32.5t38 15.5h23v-19z" />
    <glyph glyph-name="uniFEDB" unicode="&#x643;" horiz-adv-x="377" arabic-form="initial" 
d="M0 33h236q32 0 46.5 16t14.5 45v143q0 35 -17.5 48.5t-43.5 13.5h-159v70q0 51 26 74.5t74 23.5h106v-34h-113q-35 0 -47.5 -17.5t-12.5 -45.5v-38h122q52 0 75 -26t23 -69v-141q0 -50 -26 -73t-74 -23h-230v33z" />
    <glyph glyph-name="uniFEDC" unicode="&#x643;" horiz-adv-x="365" arabic-form="medial" 
d="M297 237q0 35 -17.5 48.5t-43.5 13.5h-159v70q0 51 26 74.5t74 23.5h106v-34h-113q-35 0 -47.5 -17.5t-12.5 -45.5v-38h122q52 0 75 -26t23 -69v-204h40v-33h-370v33h297v204z" />
    <glyph glyph-name="uniFEDE" unicode="&#x644;" horiz-adv-x="477" arabic-form="final" 
d="M442 33h40v-33h-40v-29q0 -44 -19.5 -72.5t-48.5 -45.5t-64 -24t-66 -7q-34 0 -69 7.5t-63.5 24.5t-46.5 46t-18 72v188l33 23v-211q0 -33 15 -55.5t38.5 -36t52.5 -19t58 -5.5q33 0 62.5 6.5t52.5 20t36.5 35.5t13.5 53v496h33v-434z" />
    <glyph glyph-name="uniFEDF" unicode="&#x644;" horiz-adv-x="155" arabic-form="initial" 
d="M108 467v-380q0 -44 -22.5 -65.5t-58.5 -21.5h-27v33h24q17 0 27 5t15.5 13.5t7.5 18.5t2 19v378h32z" />
    <glyph glyph-name="uniFEE0" unicode="&#x644;" horiz-adv-x="144" arabic-form="medial" 
d="M0 33h76v434h32v-434h40v-33h-148v33z" />
    <glyph glyph-name="uniFEE2" unicode="&#x645;" horiz-adv-x="403" arabic-form="final" 
d="M408 33v-33h-263q-40 0 -52.5 -17.5t-12.5 -45.5v-95l-33 -19v114q0 51 26 73.5t75 22.5v203q0 51 27.5 73.5t73.5 22.5h119v-299h40zM335 299h-92q-33 0 -47.5 -16t-14.5 -48v-202h154v266z" />
    <glyph glyph-name="uniFEE3" unicode="&#x645;" horiz-adv-x="343" arabic-form="initial" 
d="M0 0v33h76v206q0 28 10 47t26 30.5t35.5 16t38.5 4.5t38.5 -4.5t35.5 -16t26.5 -30.5t10.5 -47v-217q0 -29 -10 -48.5t-26 -31t-36 -16.5t-39 -5q-17 0 -35 4t-33.5 13t-26.5 24t-14 38h-77zM108 29q0 -23 6.5 -38t17.5 -23t25 -11t29 -3t28.5 2.5t24.5 11t17.5 23
t6.5 38.5v206q0 21 -6.5 34t-17.5 21t-24.5 11t-28.5 3t-29 -3t-25 -11t-17.5 -21t-6.5 -34v-206z" />
    <glyph glyph-name="uniFEE4" unicode="&#x645;" horiz-adv-x="332" arabic-form="medial" 
d="M0 0v33h76v206q0 28 10 47t26 30.5t35.5 16t38.5 4.5t38.5 -4.5t35.5 -16t26.5 -30.5t10.5 -47v-206h40v-33h-42q-4 -22 -15 -37t-26 -24.5t-33 -13.5t-35 -4t-35 4t-33.5 13t-26.5 24t-14 38h-77zM108 29q0 -23 6.5 -38t17.5 -23t25 -11t29 -3t28.5 2.5t24.5 11t17.5 23
t6.5 38.5v206q0 21 -6.5 34t-17.5 21t-24.5 11t-28.5 3t-29 -3t-25 -11t-17.5 -21t-6.5 -34v-206z" />
    <glyph glyph-name="uniFEE6" unicode="&#x646;" horiz-adv-x="477" arabic-form="final" 
d="M267 461q0 -9 -6 -15t-16 -6q-9 0 -15.5 6t-6.5 15q0 10 6.5 16.5t15.5 6.5t15.5 -6.5t6.5 -16.5zM442 33h40v-33h-40v-29q0 -44 -19.5 -72.5t-48.5 -45.5t-64 -24t-66 -7q-34 0 -69 7.5t-63.5 24.5t-46.5 46t-18 72v188l33 23v-211q0 -33 15 -55.5t38.5 -36t52.5 -19
t58 -5.5q33 0 62.5 6.5t52.5 20t36.5 35.5t13.5 53v361h33v-299z" />
    <glyph glyph-name="uniFEE7" unicode="&#x646;" horiz-adv-x="197" arabic-form="initial" 
d="M156 461q0 -9 -6.5 -15t-15.5 -6t-15.5 6t-6.5 15q0 10 6.5 16.5t15.5 6.5t15.5 -6.5t6.5 -16.5zM53 33q37 0 51 16.5t14 47.5v235h33v-233q0 -48 -24 -73.5t-75 -25.5h-52v33h53z" />
    <glyph glyph-name="uniFEE8" unicode="&#x646;" horiz-adv-x="186" arabic-form="medial" 
d="M0 33h118v299h33v-299h39v-33h-190v33zM156 461q0 -9 -6.5 -15t-15.5 -6t-15.5 6t-6.5 15q0 10 6.5 16.5t15.5 6.5t15.5 -6.5t6.5 -16.5z" />
    <glyph glyph-name="uniFEEA" unicode="&#x647;" horiz-adv-x="303" arabic-form="final" 
d="M144 0q-53 0 -75 27.5t-22 67.5v142q0 52 28.5 73.5t71.5 21.5h120v-299h40v-33h-73v20l-25 -20h-65zM234 299h-92q-35 0 -48.5 -17.5t-13.5 -46.5v-141q0 -61 61 -61h93v266z" />
    <glyph glyph-name="uniFEEB" unicode="&#x647;" horiz-adv-x="417" arabic-form="initial" 
d="M149 7q-8 -5 -13.5 -6t-14.5 -1h-121v33h94q-19 22 -19 50q0 30 21.5 51.5t52.5 21.5t52 -21.5t21 -51.5q0 -27 -20 -50h73q32 0 47 16.5t15 44.5v143q0 33 -18 47.5t-44 14.5h-200v33h197q51 0 74.5 -26.5t23.5 -69.5v-141q0 -27 -8 -45t-22 -29.5t-32 -16t-37 -4.5h-95
q-8 0 -14 1t-13 6zM197 83q0 20 -14 34.5t-35 14.5q-20 0 -34 -14.5t-14 -34.5t14 -34.5t34 -14.5q21 0 35 14.5t14 34.5z" />
    <glyph glyph-name="uniFEEC" unicode="&#x647;" horiz-adv-x="403" arabic-form="medial" 
d="M337 237q0 33 -18 47.5t-44 14.5h-200v33h197q51 0 74.5 -26.5t23.5 -69.5v-203h38v-33h-232q-8 0 -14 1t-13 6q-8 -5 -13.5 -6t-14.5 -1h-121v33h94q-19 22 -19 50q0 30 21.5 51.5t52.5 21.5t52 -21.5t21 -51.5q0 -27 -20 -50h135v204zM197 83q0 20 -14 34.5t-35 14.5
q-20 0 -34 -14.5t-14 -34.5t14 -34.5t34 -14.5q21 0 35 14.5t14 34.5z" />
    <glyph glyph-name="uniFEEE" unicode="&#x648;" horiz-adv-x="303" arabic-form="final" 
d="M146 0q-54 0 -76.5 27t-22.5 67v143q0 51 27.5 73t71.5 22h121v-299h40v-33h-40v-36q0 -45 -15 -72.5t-37 -42t-47 -19.5t-46 -5h-8t-8 1l-22 32q7 -2 15 -2h15q22 0 43.5 4.5t38.5 16.5t27.5 32t10.5 52v39h-88zM234 299h-96q-32 0 -45 -16t-13 -45v-145q0 -26 14.5 -43
t43.5 -17h96v266z" />
    <glyph glyph-name="uniFEF0" unicode="&#x649;" horiz-adv-x="477" arabic-form="final" 
d="M332 0v33h150v-33h-40v-27q0 -46 -20.5 -75.5t-50.5 -46t-64.5 -23t-62.5 -6.5q-31 0 -65.5 6.5t-64 23t-48.5 46t-19 74.5v188l33 23v-211q0 -38 17.5 -61t43 -35t54 -16t49.5 -4q28 0 57.5 6t53.5 19.5t39 36t15 55.5v27h-77z" />
    <glyph glyph-name="uniFEF2" unicode="&#x64a;" horiz-adv-x="477" arabic-form="final" 
d="M228 -305q0 -9 -6.5 -16t-15.5 -7t-16 7t-7 16t7 15.5t16 6.5t15.5 -6.5t6.5 -15.5zM304 -305q0 -9 -6 -16t-15 -7q-10 0 -16.5 7t-6.5 16t6.5 15.5t16.5 6.5q9 0 15 -6.5t6 -15.5zM332 0v33h150v-33h-40v-27q0 -46 -20.5 -75.5t-50.5 -46t-64.5 -23t-62.5 -6.5
q-31 0 -65.5 6.5t-64 23t-48.5 46t-19 74.5v188l33 23v-211q0 -38 17.5 -61t43 -35t54 -16t49.5 -4q28 0 57.5 6t53.5 19.5t39 36t15 55.5v27h-77z" />
    <glyph glyph-name="uniFEF3" unicode="&#x64a;" horiz-adv-x="197" arabic-form="initial" 
d="M80 -153q0 -9 -7 -15.5t-16 -6.5t-15.5 6.5t-6.5 15.5t6.5 16t15.5 7t16 -7t7 -16zM156 -153q0 -9 -6.5 -15.5t-15.5 -6.5t-15.5 6.5t-6.5 15.5t6.5 16t15.5 7t15.5 -7t6.5 -16zM53 33q37 0 51 16.5t14 47.5v235h33v-233q0 -48 -24 -73.5t-75 -25.5h-52v33h53z" />
    <glyph glyph-name="uniFEF4" unicode="&#x64a;" horiz-adv-x="186" arabic-form="medial" 
d="M0 33h118v299h33v-299h39v-33h-190v33zM80 -153q0 -9 -7 -15.5t-16 -6.5t-15.5 6.5t-6.5 15.5t6.5 16t15.5 7t16 -7t7 -16zM156 -153q0 -9 -6.5 -15.5t-15.5 -6.5t-15.5 6.5t-6.5 15.5t6.5 16t15.5 7t15.5 -7t6.5 -16z" />
    <glyph glyph-name=".notdef" horiz-adv-x="500" 
d="M12 665h475v-665h-475v665zM250 375l161 243h-323zM60 91l161 242l-161 242v-484zM278 333l162 -243v485zM250 290l-162 -242h323z" />
    <glyph glyph-name="glyph1" 
 />
    <glyph glyph-name="glyph2" horiz-adv-x="126" 
 />
    <glyph glyph-name="space" unicode=" " horiz-adv-x="126" 
 />
    <glyph glyph-name="exclam" unicode="!" horiz-adv-x="156" 
d="M92 112h-28l-7 355h42zM105 24q0 -11 -8 -19.5t-19 -8.5t-19 8.5t-8 19.5t8 18.5t19 7.5t19 -7.5t8 -18.5z" />
    <glyph glyph-name="quotedbl" unicode="&#x22;" horiz-adv-x="201" 
d="M153 339h-25l-12 128h48zM74 339h-25l-12 128h49z" />
    <glyph glyph-name="numbersign" unicode="#" horiz-adv-x="446" 
d="M406 295h-71l-25 -123h70l-7 -33h-71l-29 -139h-37l30 139h-128l-29 -139h-36l29 139h-69l7 33h69l26 123h-69l7 33h69l30 139h36l-29 -139h127l30 139h36l-29 -139h70zM171 295l-26 -123h128l26 123h-128z" />
    <glyph glyph-name="dollar" unicode="$" horiz-adv-x="369" 
d="M322 120q0 -60 -34 -90t-90 -36v-57h-26v56q-32 0 -66 5.5t-60 19.5l7 35q14 -8 45 -18.5t74 -10.5v206q-24 12 -47 25t-40 28.5t-27.5 35t-10.5 44.5q0 30 10 50.5t27 33.5t39.5 19.5t48.5 8.5v57h26v-57q28 0 56.5 -7t51.5 -18l-7 -31q-14 7 -40 15.5t-61 9.5v-188
q17 -10 38.5 -21t40.5 -27t32 -37t13 -51zM172 443q-18 -1 -34 -5.5t-28 -13.5t-19.5 -23.5t-7.5 -36.5q0 -31 25.5 -51t63.5 -42v172zM286 115q0 19 -6.5 33t-18.5 25.5t-28 21.5l-35 21v-190q16 2 32 7t28.5 15.5t20 26.5t7.5 40z" />
    <glyph glyph-name="percent" unicode="%" horiz-adv-x="654" 
d="M619 126q0 -40 -10 -65.5t-27 -40.5t-38.5 -20.5t-43.5 -5.5t-43.5 5.5t-38 20.5t-27 40.5t-10.5 65.5t10.5 66t27 41t38 21t43.5 6t43.5 -6t38.5 -21t27 -41t10 -66zM211 -12h-32l253 491h32zM272 340q0 -40 -10 -65.5t-26.5 -40t-38 -20t-43.5 -5.5q-23 0 -44 5.5
t-38 20t-27 40t-10 65.5t10 66t27 41.5t38 21.5t44 6q22 0 43.5 -6t38 -21.5t26.5 -41.5t10 -66zM588 126q0 34 -7.5 55.5t-19.5 33t-28 15.5t-33 4t-32.5 -4t-28 -15.5t-20 -33t-7.5 -55.5q0 -35 7.5 -55.5t20 -31.5t28 -14.5t32.5 -3.5t33 3.5t28 14.5t19.5 31.5t7.5 55.5
zM241 340q0 34 -7.5 55.5t-19.5 33t-28 15.5t-32 4q-17 0 -32.5 -4t-28 -15.5t-20 -33t-7.5 -55.5q0 -35 7.5 -55.5t20 -31.5t28 -14.5t32.5 -3.5q16 0 32 3.5t28 14.5t19.5 31.5t7.5 55.5z" />
    <glyph glyph-name="ampersand" unicode="&#x26;" horiz-adv-x="466" 
d="M428 239h-53q0 -22 -3.5 -46.5t-9.5 -44.5l-9.5 -26.5t-9.5 -22.5l-10 -21l31 -36t29 -18q14 0 19.5 2.5t11.5 4.5l-5 -32q-15 -6 -34 -6q-18 0 -36.5 16.5t-37.5 39.5q-8 -9 -18 -18.5t-25 -18t-36 -14t-50 -5.5q-31 0 -57 6.5t-45 21.5t-29.5 41t-10.5 65q0 36 12 60.5
t27.5 40t31.5 23.5t25 11q-21 28 -35 52.5t-14 55.5q0 20 6.5 39t20 33.5t33.5 23.5t47 9q38 0 65 -8t38 -13l-6 -32q-4 2 -12.5 5.5t-20 7.5t-25.5 6.5t-29 2.5q-11 0 -24.5 -1.5t-26.5 -9t-21.5 -22t-8.5 -41.5q0 -20 12.5 -42.5t33.5 -51.5q15 -21 36.5 -47l42.5 -50.5
l38.5 -45l25.5 -29.5q3 5 11.5 22.5t13.5 46.5q3 17 5 42t2 54h89zM292 74q-17 18 -54 60.5t-84 102.5q-8 -3 -21 -9t-26 -18.5t-22 -32.5t-9 -50q0 -35 12 -55.5t29 -31t35 -13.5t30 -3q27 0 46 6t32 14.5t21 16.5t11 13z" />
    <glyph glyph-name="quotesingle" unicode="'" horiz-adv-x="123" 
d="M74 339h-25l-12 128h49z" />
    <glyph glyph-name="parenleft" unicode="(" horiz-adv-x="200" 
d="M152 -102q-21 30 -40.5 66.5t-34.5 78.5t-24 89.5t-9 100.5q0 52 9 100t24 90t34.5 78.5t40.5 66.5l29 -19q-25 -37 -44 -73t-32 -74.5t-19.5 -80t-6.5 -88.5t6.5 -88.5t19.5 -80t32 -74.5t44 -73z" />
    <glyph glyph-name="parenright" unicode=")" horiz-adv-x="200" 
d="M156 233q0 -53 -9 -100.5t-24 -89.5t-34.5 -78.5t-40.5 -66.5l-29 19q25 37 44 73t32 74.5t19.5 80t6.5 88.5t-6.5 88.5t-19.5 80t-32 74.5t-44 73l29 19q21 -30 40.5 -66.5t34.5 -78.5t24 -90t9 -100z" />
    <glyph glyph-name="asterisk" unicode="*" horiz-adv-x="236" 
d="M182 338l-56 43l9 -73h-35l10 73l-56 -43l-18 31l65 26l-65 26l18 32l56 -44l-10 74h35l-9 -74l56 44l18 -32l-65 -26l65 -26z" />
    <glyph glyph-name="plus" unicode="+" horiz-adv-x="350" 
d="M193 208v-148h-35v148h-125v34h125v148h35v-148h123v-34h-123z" />
    <glyph glyph-name="comma" unicode="," horiz-adv-x="135" 
d="M94 13q0 -26 -19.5 -48t-40.5 -35l-9 22q3 2 8.5 6.5t10.5 9.5t9 10.5t4 10.5q0 7 -10 15t-10 22q0 9 7.5 16.5t20.5 7.5q12 0 20.5 -10t8.5 -27z" />
    <glyph glyph-name="hyphen" unicode="-" horiz-adv-x="274" 
d="M58 160v31h158v-31h-158z" />
    <glyph glyph-name="period" unicode="." horiz-adv-x="135" 
d="M94 24q0 -11 -8 -19.5t-19 -8.5t-18.5 8.5t-7.5 19.5t7.5 18.5t18.5 7.5t19 -7.5t8 -18.5z" />
    <glyph glyph-name="slash" unicode="/" horiz-adv-x="326" 
d="M62 -21h-35l237 509h35z" />
    <glyph glyph-name="zero" unicode="0" horiz-adv-x="455" 
d="M408 233q0 -69 -15 -115t-40 -73.5t-57.5 -39.5t-67.5 -12t-68 12t-58 39.5t-40 73.5t-15 115t15 115t40 74.5t58 40.5t68 12t67.5 -12t57.5 -40.5t40 -74.5t15 -115zM372 233q0 64 -13 105t-33.5 64.5t-46.5 32.5t-51 9q-26 0 -51.5 -9t-46 -32.5t-33.5 -64.5t-13 -105
t13 -104.5t33.5 -64t46 -32t51.5 -8.5t51.5 8.5t46 32t33.5 64t13 104.5z" />
    <glyph glyph-name="one" unicode="1" horiz-adv-x="216" 
d="M99 0v428l-73 -35v33l81 41h27v-467h-35z" />
    <glyph glyph-name="two" unicode="2" horiz-adv-x="360" 
d="M305 0h-288v20l101.5 100t80 83t52.5 72.5t19 69.5q0 28 -10 46.5t-26 30t-36 16.5t-40 5q-43 0 -76.5 -11t-56.5 -24l8 39q32 15 63 21.5t68 6.5t64 -10.5t44.5 -28t26 -40.5t8.5 -49q0 -41 -25 -83t-62 -83t-78.5 -79t-74.5 -72h243z" />
    <glyph glyph-name="three" unicode="3" horiz-adv-x="377" 
d="M331 142q0 -39 -14 -67t-37 -46.5t-51.5 -27t-58.5 -8.5q-48 0 -83 11t-56 27l6 35q22 -17 54 -29.5t79 -12.5q12 0 33 3.5t41.5 15.5t35.5 35t15 63q0 33 -14.5 51t-34.5 26.5t-41 10t-35 1.5h-64v29h64q19 0 39.5 2.5t37 11t27 26t10.5 47.5q0 28 -11.5 46.5t-29 30
t-37.5 16.5t-38 5q-55 0 -83.5 -13t-41.5 -23l6 39q17 10 45 19t74 9q66 0 109.5 -33t43.5 -95q0 -25 -7.5 -42.5t-19 -29.5t-25.5 -19.5t-26 -11.5q14 -2 29.5 -9.5t28.5 -20.5t21.5 -31t8.5 -41z" />
    <glyph glyph-name="four" unicode="4" horiz-adv-x="388" 
d="M357 115h-61v-115h-35v115h-228l-4 24l227 328h40v-321h66zM261 423l-193 -277h193v277z" />
    <glyph glyph-name="five" unicode="5" horiz-adv-x="357" 
d="M323 146q0 -40 -13.5 -69t-36 -47.5t-51 -27.5t-58.5 -9q-47 0 -74 9.5t-54 28.5l7 35q25 -20 50.5 -31t70.5 -11q21 0 42.5 6t39.5 20.5t29.5 37.5t11.5 58q0 34 -12 55t-30 33t-38 16t-35 4q-39 0 -69 -7.5t-56 -16.5l12 237h238l-5 -30h-198l-9 -163q17 5 40.5 8.5
t50.5 3.5q21 0 46.5 -6.5t48 -22.5t37.5 -43t15 -68z" />
    <glyph glyph-name="six" unicode="6" horiz-adv-x="403" 
d="M363 139q0 -38 -12 -65.5t-32.5 -45.5t-48.5 -26.5t-59 -8.5q-38 0 -68.5 12.5t-51.5 40t-32.5 71.5t-11.5 108q0 55 9.5 101t31 79t55.5 51.5t83 18.5q41 0 67.5 -7.5t51.5 -18.5l-6 -35q-21 12 -49 21t-63 9q-45 0 -73 -15.5t-43.5 -43t-21 -65t-5.5 -80.5
q17 13 51.5 26t81.5 13q19 0 44 -5.5t47.5 -20.5t38.5 -42.5t16 -71.5zM326 139q0 33 -10 54t-25.5 33t-35 16.5t-38.5 4.5q-41 0 -76.5 -12t-56.5 -28q0 -57 12 -92.5t31 -55.5t41 -27t43 -7q12 0 31.5 2t38 12.5t32 33.5t13.5 66z" />
    <glyph glyph-name="seven" unicode="7" horiz-adv-x="319" 
d="M114 0h-35l178 437h-244l5 30h278v-23z" />
    <glyph glyph-name="eight" unicode="8" horiz-adv-x="412" 
d="M372 127q0 -66 -46.5 -100t-119.5 -34q-36 0 -66.5 8.5t-52.5 25.5t-34.5 42t-12.5 58q0 24 7.5 42.5t19.5 32.5t27 23t30 14q-35 11 -54.5 37.5t-19.5 65.5q0 33 12 57.5t33 41.5t49.5 25.5t61.5 8.5t61.5 -8.5t49.5 -25.5t33 -41.5t12 -57.5q0 -38 -19.5 -65t-54.5 -38
q16 -5 31 -14t27 -22.5t19 -32t7 -43.5zM327 342q0 30 -10 49.5t-26.5 31t-38.5 16.5t-46 5t-46 -5t-38.5 -16.5t-26 -31t-9.5 -49.5q0 -42 31.5 -65t88.5 -23q58 0 89.5 23t31.5 65zM336 127q0 31 -13.5 50t-33 29.5t-42 13.5t-41.5 3q-17 0 -39.5 -3t-42.5 -13.5
t-33.5 -29.5t-13.5 -50q0 -53 36.5 -78t92.5 -25t93 25t37 78z" />
    <glyph glyph-name="nine" unicode="9" horiz-adv-x="403" 
d="M356 230q0 -53 -10.5 -96.5t-33 -75t-56.5 -48.5t-82 -17q-53 0 -82.5 12.5t-46.5 26.5l6 35q20 -18 53.5 -30t68.5 -12q30 0 56.5 9.5t46.5 32.5t32 63t12 100q-15 -14 -49.5 -27.5t-84.5 -13.5q-31 0 -57.5 9t-46 26.5t-31 43t-11.5 58.5q0 39 12.5 67.5t33.5 46.5
t50 26.5t62 8.5q81 0 119.5 -62t38.5 -183zM318 268q0 88 -32 132t-88 44q-17 0 -37.5 -2.5t-39.5 -14.5t-31.5 -35.5t-12.5 -65.5q0 -47 29 -76t80 -29q44 0 80.5 14.5t51.5 32.5z" />
    <glyph glyph-name="colon" unicode=":" horiz-adv-x="165" 
d="M108 248q0 -11 -8 -19.5t-19 -8.5t-18.5 8.5t-7.5 19.5t7.5 18.5t18.5 7.5t19 -7.5t8 -18.5zM110 24q0 -11 -8 -19.5t-19 -8.5t-19 8.5t-8 19.5t8 18.5t19 7.5t19 -7.5t8 -18.5z" />
    <glyph glyph-name="semicolon" unicode=";" horiz-adv-x="165" 
d="M108 248q0 -11 -8 -19.5t-19 -8.5t-18.5 8.5t-7.5 19.5t7.5 18.5t18.5 7.5t19 -7.5t8 -18.5zM110 13q0 -26 -19.5 -48t-40.5 -35l-9 22q3 2 8.5 6.5t10.5 9.5t9 10.5t4 10.5q0 7 -10 15t-10 22q0 9 7.5 16.5t20.5 7.5q12 0 20.5 -10t8.5 -27z" />
    <glyph glyph-name="less" unicode="&#x3c;" horiz-adv-x="350" 
d="M34 214v20l281 145v-39l-227 -115v-1l227 -116v-39z" />
    <glyph glyph-name="equal" unicode="=" horiz-adv-x="350" 
d="M33 281v35h283v-35h-283zM33 134v35h283v-35h-283z" />
    <glyph glyph-name="greater" unicode="&#x3e;" horiz-adv-x="350" 
d="M34 69v39l228 115v1l-228 115v39l281 -144v-20z" />
    <glyph glyph-name="question" unicode="?" horiz-adv-x="302" 
d="M266 363q0 -39 -19.5 -64t-42.5 -44.5t-42.5 -38t-19.5 -44.5v-60h-35v66q0 31 19.5 52t42.5 40.5t42.5 41t19.5 51.5q0 25 -9 41t-22.5 24t-31 11t-33.5 3q-23 0 -48.5 -5.5t-45.5 -14.5l-5 33q21 8 47 13.5t52 5.5q22 0 45 -4t42 -16t31.5 -34t12.5 -57zM152 24
q0 -11 -8 -19.5t-19 -8.5t-19 8.5t-8 19.5t8 18.5t19 7.5t19 -7.5t8 -18.5z" />
    <glyph glyph-name="at" unicode="@" horiz-adv-x="664" 
d="M191 91q0 33 11.5 53.5t30.5 32t44 15.5t52 4q20 0 39 -1t39 -3v41q0 26 -9 40.5t-23 22t-32 9.5t-37 2q-22 0 -44 -5t-49 -14l7 33q24 8 51 12.5t51 4.5q30 0 52.5 -5.5t37.5 -19.5t22.5 -37.5t7.5 -60.5v-116q0 -35 7.5 -53.5t43.5 -18.5q10 0 24.5 5t27.5 21.5t22 47
t9 82.5q0 69 -16 118t-47 80t-75.5 45.5t-102.5 14.5q-51 0 -95.5 -12.5t-78 -44.5t-53 -88t-19.5 -143q0 -83 19.5 -135.5t51 -82.5t72 -41.5t82.5 -11.5q62 0 109.5 8.5t70.5 16.5l10 -33q-19 -8 -71.5 -15.5t-121.5 -7.5q-68 0 -117 21.5t-80.5 61t-46 95.5t-14.5 124
q0 162 74 240.5t208 78.5q57 0 107.5 -14t88 -48t59 -89.5t21.5 -137.5q0 -38 -6.5 -72t-20.5 -59.5t-36.5 -41t-54.5 -15.5q-23 0 -38 3.5t-24 10t-14 16t-9 21.5q-13 -20 -36.5 -35.5t-74.5 -15.5t-78.5 25.5t-27.5 70.5zM407 164q-18 2 -38.5 3t-38.5 1q-22 0 -41 -2
t-33 -9t-22 -21t-8 -37q0 -42 21 -57t50 -15q30 0 50.5 8.5t34 22.5t19.5 31.5t6 35.5v39z" />
    <glyph glyph-name="A" unicode="A" horiz-adv-x="403" 
d="M349 0l-42 120h-211l-43 -120h-36l166 467h38l165 -467h-37zM202 417l-96 -267h190z" />
    <glyph glyph-name="B" unicode="B" horiz-adv-x="379" 
d="M347 129q0 -66 -34 -97.5t-107 -31.5h-150v467h143q18 0 41 -2.5t43.5 -14.5t34.5 -36t14 -67q0 -28 -8 -46.5t-19.5 -30t-24 -17.5t-21.5 -9q39 -11 63.5 -40.5t24.5 -74.5zM296 347q0 46 -24 67.5t-65 21.5h-116v-177h116q15 0 31 4t28.5 14t21 27t8.5 43zM311 129
q0 42 -28.5 70.5t-70.5 28.5h-121v-197h121q16 0 33.5 3t32 13t24 29.5t9.5 52.5z" />
    <glyph glyph-name="C" unicode="C" horiz-adv-x="392" 
d="M359 8q-20 -7 -49 -11t-55 -4q-43 0 -82 14.5t-68.5 43.5t-47 73t-17.5 103q0 51 14 96t40.5 78.5t65.5 53.5t89 20q49 0 77 -8.5t39 -13.5l-6 -33q-19 9 -48 16.5t-58 7.5q-34 0 -66 -12.5t-56.5 -39.5t-39 -69t-14.5 -100q0 -52 16 -89.5t41.5 -62t57 -36t62.5 -11.5
q26 0 54 4.5t57 15.5z" />
    <glyph glyph-name="D" unicode="D" horiz-adv-x="434" 
d="M391 233q0 -66 -15 -110.5t-40 -72t-58.5 -39t-69.5 -11.5h-152v467h151q96 0 140 -61t44 -173zM355 233q0 69 -16.5 109t-39 61t-46.5 27t-40 6h-122v-406h122q16 0 40.5 6t47 27t38.5 61t16 109z" />
    <glyph glyph-name="E" unicode="E" horiz-adv-x="345" 
d="M307 0h-251v467h256l-5 -31h-216v-188h195l-5 -30h-190v-187h221z" />
    <glyph glyph-name="F" unicode="F" horiz-adv-x="324" 
d="M296 436h-205v-188h185l-6 -30h-179v-218h-35v467h246z" />
    <glyph glyph-name="G" unicode="G" horiz-adv-x="443" 
d="M392 15q-14 -6 -49.5 -14t-85.5 -8q-43 0 -82 14.5t-68.5 43.5t-47 73t-17.5 103q0 51 14 96t40.5 78.5t65.5 53.5t89 20q49 0 81 -7.5t49 -14.5l-6 -33q-20 8 -53.5 16t-66.5 8q-34 0 -66 -12.5t-56.5 -39.5t-39 -69t-14.5 -100q0 -67 23 -106.5t53.5 -60t59.5 -26.5
t41 -6q23 0 51.5 4t49.5 12v178h-133l6 31h162v-234z" />
    <glyph glyph-name="H" unicode="H" horiz-adv-x="435" 
d="M344 0v218h-253v-218h-35v467h35v-219h253v219h35v-467h-35z" />
    <glyph glyph-name="I" unicode="I" horiz-adv-x="151" 
d="M58 0v467h35v-467h-35z" />
    <glyph glyph-name="J" unicode="J" horiz-adv-x="208" 
d="M154 111q0 -41 -5.5 -64t-16 -35t-26 -15t-36.5 -3q-11 0 -27.5 2t-26.5 4l-6 31q16 -5 32 -7t28 -2t21 2t15.5 9.5t9.5 23.5t3 44v335h-85l10 31h110v-356z" />
    <glyph glyph-name="K" unicode="K" horiz-adv-x="373" 
d="M326 0l-140 265l-95 -124v-141h-35v467h35v-278l211 278h41l-134 -173l155 -294h-38z" />
    <glyph glyph-name="L" unicode="L" horiz-adv-x="311" 
d="M284 0h-228v467h35v-436h198z" />
    <glyph glyph-name="M" unicode="M" horiz-adv-x="510" 
d="M422 0v420l-149 -420h-36l-149 420v-420h-32v467h49l150 -430l150 430h49v-467h-32z" />
    <glyph glyph-name="N" unicode="N" horiz-adv-x="435" 
d="M349 0l-258 395v-395h-35v467h30l258 -394v394h35v-467h-30z" />
    <glyph glyph-name="O" unicode="O" horiz-adv-x="461" 
d="M418 233q0 -69 -16.5 -115t-43 -74t-60 -39.5t-67.5 -11.5t-67.5 11.5t-60.5 39.5t-43.5 74t-16.5 115q0 70 16.5 116.5t43.5 74.5t60.5 39.5t67.5 11.5t67.5 -11.5t60 -39.5t43 -74.5t16.5 -116.5zM382 233q0 64 -14.5 105t-36.5 64.5t-48.5 32.5t-51.5 9t-51.5 -9
t-48.5 -32.5t-36.5 -64.5t-14.5 -105t14.5 -104.5t36.5 -64t48.5 -32t51.5 -8.5t51.5 8.5t48.5 32t36.5 64t14.5 104.5z" />
    <glyph glyph-name="P" unicode="P" horiz-adv-x="381" 
d="M347 329q0 -64 -34 -101t-103 -37h-119v-191h-35v467h154q69 0 103 -37t34 -101zM311 329q0 36 -10.5 57t-26 32.5t-32.5 14.5t-30 3h-121v-214h121q13 0 30 3t32.5 14t26 32.5t10.5 57.5z" />
    <glyph glyph-name="Q" unicode="Q" horiz-adv-x="461" 
d="M381 -52l-26 -45l-119 90q-36 0 -71 11.5t-62 39.5t-43.5 74t-16.5 115q0 70 16.5 116.5t43.5 74.5t60.5 39.5t67.5 11.5t67.5 -11.5t60 -39.5t43 -74.5t16.5 -116.5q0 -57 -11.5 -98t-30.5 -69t-44 -44t-53 -23zM382 233q0 64 -14.5 105t-36.5 64.5t-48.5 32.5t-51.5 9
t-51.5 -9t-48.5 -32.5t-36.5 -64.5t-14.5 -105t14.5 -104.5t36.5 -64t48.5 -32t51.5 -8.5t51.5 8.5t48.5 32t36.5 64t14.5 104.5z" />
    <glyph glyph-name="R" unicode="R" horiz-adv-x="391" 
d="M324 0l-98 192q-5 -1 -16 -1h-119v-191h-35v467h154q69 0 103 -37t34 -101q0 -51 -21 -84.5t-65 -46.5l102 -198h-39zM311 329q0 36 -10.5 57t-26 32.5t-32.5 14.5t-30 3h-121v-214h121q13 0 30 3t32.5 14t26 32.5t10.5 57.5z" />
    <glyph glyph-name="S" unicode="S" horiz-adv-x="332" 
d="M306 120q0 -67 -42 -97t-110 -30q-41 0 -73 7t-51 18l7 35q20 -11 49 -20t68 -9q18 0 38.5 3.5t38 13t28.5 27.5t11 47t-17.5 49.5t-44.5 37t-57.5 31.5t-57.5 33t-44.5 41t-17.5 56t12 54.5t33 34.5t48.5 18t57.5 5q27 0 56 -7t52 -18l-7 -31q-24 10 -50 17.5t-54 7.5
q-21 0 -41 -3t-36 -11.5t-25.5 -24t-9.5 -41.5q0 -25 17.5 -43.5t44.5 -34.5t57.5 -31.5t57.5 -34t44.5 -43t17.5 -57.5z" />
    <glyph glyph-name="T" unicode="T" horiz-adv-x="341" 
d="M312 436h-122v-436h-35v436h-123v31h285z" />
    <glyph glyph-name="U" unicode="U" horiz-adv-x="429" 
d="M376 155q0 -23 -4 -51t-20.5 -53t-48.5 -41.5t-88 -16.5t-88 16.5t-48.5 41.5t-21 53t-4.5 51v312h35v-312q0 -26 5.5 -49.5t19.5 -41.5t38.5 -29t63.5 -11t63.5 11t38.5 29t19 41.5t5 49.5v312h35v-312z" />
    <glyph glyph-name="V" unicode="V" horiz-adv-x="407" 
d="M222 0h-38l-165 467h36l148 -417l148 417h37z" />
    <glyph glyph-name="W" unicode="W" horiz-adv-x="581" 
d="M431 0h-38l-102 414l-103 -414h-37l-129 467h36l112 -415l102 415h38l102 -415l111 415h36z" />
    <glyph glyph-name="X" unicode="X" horiz-adv-x="351" 
d="M301 0l-127 226l-124 -226h-39l138 246l-127 221h38l114 -201l117 201h38l-127 -221l138 -246h-39z" />
    <glyph glyph-name="Y" unicode="Y" horiz-adv-x="378" 
d="M207 201v-201h-35v201l-162 266h38l141 -235l142 235h37z" />
    <glyph glyph-name="Z" unicode="Z" horiz-adv-x="370" 
d="M33 0v20l245 416h-231l5 31h272v-20l-246 -416h251v-31h-296z" />
    <glyph glyph-name="bracketleft" unicode="[" horiz-adv-x="194" 
d="M58 -102v670h120v-30h-85v-610h85v-30h-120z" />
    <glyph glyph-name="backslash" unicode="\" horiz-adv-x="326" 
d="M264 -21l-237 509h35l237 -509h-35z" />
    <glyph glyph-name="bracketright" unicode="]" horiz-adv-x="194" 
d="M16 -102v30h85v610h-85v30h120v-670h-120z" />
    <glyph glyph-name="asciicircum" unicode="^" horiz-adv-x="350" 
d="M281 239l-105 188h-2l-104 -188h-43l137 236h22l137 -236h-42z" />
    <glyph glyph-name="underscore" unicode="_" horiz-adv-x="276" 
d="M-5 -136v32h286v-32h-286z" />
    <glyph glyph-name="grave" unicode="`" horiz-adv-x="120" 
d="M80 383l-80 65h55l65 -65h-40z" />
    <glyph glyph-name="a" unicode="a" horiz-adv-x="328" 
d="M319 3q-21 -7 -34 -7q-6 0 -12.5 1t-12 5.5t-9 13.5t-3.5 25v8q-9 -15 -22 -25.5t-28 -17t-30.5 -9t-29.5 -2.5q-51 0 -79 25.5t-28 70.5q0 33 11.5 53.5t31 32t44.5 15.5t52 4q20 0 39 -1t39 -3v41q0 26 -9 40.5t-23 22t-32 9.5t-37 2q-22 0 -44 -5t-49 -14l7 33
q24 8 51 12.5t51 4.5q30 0 52.5 -5.5t37.5 -19.5t22.5 -37.5t7.5 -60.5v-172q0 -19 16 -19q5 0 14 3zM248 164q-18 2 -38.5 3t-38.5 1q-22 0 -41 -2t-33 -9t-22 -21t-8 -37q0 -42 21 -57t50 -15q30 0 50.5 8.5t34 22.5t19.5 31.5t6 35.5v39z" />
    <glyph glyph-name="b" unicode="b" horiz-adv-x="380" 
d="M341 169q0 -39 -9 -71t-27 -55t-45.5 -35.5t-64.5 -12.5q-33 0 -70 4t-71 15v453h34v-189q5 10 15 20.5t25 19.5t35.5 14.5t47.5 5.5q25 0 48.5 -7.5t41.5 -27t29 -52t11 -82.5zM305 164q0 67 -21.5 105t-77.5 38q-29 0 -51 -9t-37 -23t-22.5 -31.5t-7.5 -34.5v-170
q22 -6 48.5 -9t51.5 -3q24 0 45.5 5t37.5 20t25 42t9 70z" />
    <glyph glyph-name="c" unicode="c" horiz-adv-x="315" 
d="M287 288q-19 6 -42.5 11.5t-48.5 5.5q-57 0 -90 -36.5t-33 -103.5q0 -49 15 -76.5t36 -41t43.5 -16.5t37.5 -3q23 0 44 5t41 13l-7 -36q-13 -6 -37 -10.5t-47 -4.5q-25 0 -53.5 6.5t-52.5 25t-40 52.5t-16 90q0 35 9.5 66t29 54t49 36t69.5 13q36 0 58.5 -4.5t41.5 -12.5
z" />
    <glyph glyph-name="d" unicode="d" horiz-adv-x="378" 
d="M297 289q-21 6 -45.5 11.5t-55.5 5.5q-24 0 -45.5 -5t-37 -20t-24.5 -42t-9 -70q0 -68 21 -105t77 -37q29 0 51.5 8.5t37.5 22.5t22.5 31.5t7.5 35.5v164zM367 3q-13 -5 -21 -6t-13 -1q-7 0 -13.5 1t-11.5 6t-8 15t-3 27v7q-5 -8 -15 -18t-25.5 -18.5t-36.5 -14.5t-47 -6
q-25 0 -48.5 7.5t-41.5 27t-28.5 52t-10.5 82.5q0 39 8.5 71t26.5 55t45 35.5t65 12.5q33 0 60 -4.5t48 -10.5v144h34v-424q0 -19 16 -19q5 0 14 3z" />
    <glyph glyph-name="e" unicode="e" horiz-adv-x="362" 
d="M326 192q0 -16 -1 -24.5t-1 -10.5h-249q0 -44 11 -70t29 -39.5t41.5 -17t47.5 -3.5q61 0 113 23l-7 -35q-23 -11 -52.5 -15.5t-56.5 -4.5q-90 0 -126 42t-36 125q0 37 9 69t27 56t45.5 37.5t65.5 13.5q36 0 62.5 -11t43.5 -30.5t25.5 -46.5t8.5 -58zM292 185
q3 65 -27 93.5t-79 28.5q-33 0 -54.5 -12.5t-34 -31t-17.5 -40t-5 -38.5h217z" />
    <glyph glyph-name="f" unicode="f" horiz-adv-x="183" 
d="M180 439q-9 5 -21 8t-23 3q-24 0 -32 -10.5t-8 -36.5v-71h74v-28h-74v-304h-35v304h-51l6 28h45v71q0 36 15.5 56.5t57.5 20.5q17 0 29 -3t23 -8z" />
    <glyph glyph-name="g" unicode="g" horiz-adv-x="375" 
d="M326 15q0 -52 -11.5 -82.5t-32.5 -46t-49 -20t-61 -4.5q-71 0 -125 29l6 31q27 -14 60 -22t62 -8q28 0 50 4t37 16t22.5 33t7.5 56v55q-5 -10 -15 -21t-25 -20t-36 -14.5t-48 -5.5q-25 0 -48.5 7.5t-41.5 27t-28.5 52t-10.5 82.5q0 88 39.5 131t113.5 43q52 0 82.5 -6
t51.5 -13v-304zM292 294q-16 4 -38 8t-56 4q-23 0 -45 -3.5t-39.5 -17.5t-28 -41.5t-10.5 -74.5q0 -68 21 -105t77 -37q29 0 51.5 8.5t37.5 22.5t22.5 31.5t7.5 35.5v169z" />
    <glyph glyph-name="h" unicode="h" horiz-adv-x="352" 
d="M273 222q0 42 -10.5 62.5t-50.5 20.5q-21 0 -42 -7.5t-39 -18t-31 -20.5t-17 -15v-244h-34v467h34v-187q8 7 22 17t32 19t38.5 15.5t41.5 6.5q26 0 43.5 -6t28 -19.5t14.5 -35t4 -53.5v-181q0 -19 16 -19q5 0 14 3l6 -24q-21 -7 -34 -7q-6 0 -12.5 1t-11.5 5.5t-8.5 14
t-3.5 25.5v180z" />
    <glyph glyph-name="i" unicode="i" horiz-adv-x="129" 
d="M91 439q0 -11 -7.5 -18t-18.5 -7q-10 0 -17 7t-7 18t7 18t17 7q11 0 18.5 -7t7.5 -18zM48 332h34v-289q0 -19 16 -19q5 0 14 3l6 -24q-21 -7 -34 -7q-17 0 -26.5 8.5t-9.5 38.5v289z" />
    <glyph glyph-name="j" unicode="j" horiz-adv-x="117" 
d="M77 439q0 -11 -7.5 -18t-17.5 -7q-11 0 -18 7t-7 18t7 18t18 7q10 0 17.5 -7t7.5 -18zM69 -61q0 -38 -16.5 -57.5t-56.5 -19.5q-19 0 -31 3.5t-21 8.5l7 29q5 -3 15.5 -7t26.5 -4q20 0 31 7.5t11 39.5v393h34v-393z" />
    <glyph glyph-name="k" unicode="k" horiz-adv-x="302" 
d="M263 0l-109 169l-71 -77v-92h-34v467h34v-331l175 196h38l-120 -136l124 -196h-37z" />
    <glyph glyph-name="l" unicode="l" horiz-adv-x="131" 
d="M51 467h34v-424q0 -19 16 -19q5 0 14 3l6 -24q-21 -7 -34 -7q-17 0 -26.5 8.5t-9.5 38.5v424z" />
    <glyph glyph-name="m" unicode="m" horiz-adv-x="554" 
d="M475 222q0 42 -10.5 62.5t-50.5 20.5q-19 0 -37 -6.5t-34 -16t-28.5 -20t-19.5 -18.5q1 -5 1 -10v-11v-223h-35v222q0 42 -10.5 62.5t-50.5 20.5q-21 0 -40 -7.5t-35 -18t-27 -20.5t-15 -15v-244h-34v332h34v-52q8 7 20.5 17t28 19t34.5 15.5t39 6.5q38 0 58.5 -12.5
t27.5 -48.5q11 10 25 21t30.5 20t34.5 14.5t38 5.5q24 0 41.5 -5t28 -17.5t15.5 -35t5 -57.5v-180q0 -19 16 -19q5 0 14 3l6 -24q-21 -7 -34 -7q-6 0 -12.5 1t-11.5 5.5t-8.5 14t-3.5 25.5v180z" />
    <glyph glyph-name="n" unicode="n" horiz-adv-x="352" 
d="M83 280q8 7 22 17t32 19t38.5 15.5t41.5 6.5q26 0 43.5 -6t28 -19.5t14.5 -35t4 -53.5v-181q0 -19 16 -19q5 0 14 3l6 -24q-21 -7 -34 -7q-6 0 -12.5 1t-11.5 5.5t-8.5 14t-3.5 25.5v180q0 42 -10.5 62.5t-50.5 20.5q-21 0 -42 -7.5t-39 -18t-31 -20.5t-17 -15v-244h-34
v332h34v-52z" />
    <glyph glyph-name="o" unicode="o" horiz-adv-x="379" 
d="M340 165q0 -51 -13 -84t-34 -52t-48 -26.5t-56 -7.5t-56 7.5t-48 26.5t-33.5 52t-12.5 84t12.5 84.5t33.5 53t48 27.5t56 8t56 -8t48 -27.5t34 -53t13 -84.5zM304 165q0 44 -10 72t-26 43.5t-37 21t-42 5.5t-41.5 -5.5t-36.5 -21t-26 -43.5t-10 -72t10 -71t26 -42
t36.5 -20t41.5 -5t42 5t37 20t26 42t10 71z" />
    <glyph glyph-name="p" unicode="p" horiz-adv-x="375" 
d="M336 169q0 -39 -9 -71t-27 -55t-45.5 -35.5t-64.5 -12.5q-42 0 -68 10t-39 20v-158h-34v465h34v-51q4 8 14.5 18t26 18.5t36 14.5t46.5 6q25 0 48.5 -7.5t41.5 -27t29 -52t11 -82.5zM300 164q0 67 -21.5 105t-77.5 38q-29 0 -51 -9t-37 -23t-22.5 -31.5t-7.5 -34.5v-148
q9 -9 37 -21.5t63 -12.5q24 0 45.5 5t37.5 20t25 42t9 70z" />
    <glyph glyph-name="q" unicode="q" horiz-adv-x="375" 
d="M292 -133v189q-5 -10 -15 -21t-25 -20t-36 -14.5t-48 -5.5q-25 0 -48.5 7.5t-41.5 27t-28.5 52t-10.5 82.5q0 88 39.5 131t113.5 43q47 0 79 -6t55 -13v-452h-34zM292 294q-18 5 -40 8.5t-54 3.5q-23 0 -45 -3.5t-39.5 -17.5t-28 -41.5t-10.5 -74.5q0 -68 21 -105t77 -37
q29 0 51.5 8.5t37.5 22.5t22.5 31.5t7.5 35.5v169z" />
    <glyph glyph-name="r" unicode="r" horiz-adv-x="240" 
d="M219 290q-10 6 -23.5 10.5t-31.5 4.5q-14 0 -27 -6.5t-24 -16t-19 -19.5t-11 -16v-247h-34v332h34v-46q13 20 34.5 36t50.5 16q18 0 33 -5.5t25 -11.5z" />
    <glyph glyph-name="s" unicode="s" horiz-adv-x="298" 
d="M270 94q0 -43 -33.5 -71t-96.5 -28q-39 0 -64.5 4.5t-39.5 10.5l8 35q14 -8 39 -13.5t56 -5.5q15 0 32 2.5t31.5 10t23.5 21t9 34.5q0 18 -14 30.5t-35 22t-45.5 18t-45.5 20t-35 27t-14 38.5q0 25 9.5 41.5t26 27t37.5 15t45 4.5q30 0 52 -4.5t41 -12.5l-7 -32
q-17 8 -40 13t-49 5q-42 0 -61 -14t-19 -40q0 -17 14 -28.5t35 -21t45.5 -18t45.5 -20.5t35 -29t14 -42z" />
    <glyph glyph-name="t" unicode="t" horiz-adv-x="201" 
d="M175 304h-76v-231q0 -29 8.5 -38t27.5 -9q11 0 20 2.5t19 9.5l9 -30q-20 -13 -49 -13q-35 0 -52 16t-17 61v232h-51l6 28h45v101l34 9v-110h76v-28z" />
    <glyph glyph-name="u" unicode="u" horiz-adv-x="353" 
d="M273 52q-8 -8 -22.5 -17.5t-32.5 -18.5t-38.5 -15t-40.5 -6q-45 0 -67.5 23.5t-22.5 88.5v225h34v-221q0 -42 10.5 -62.5t50.5 -20.5q21 0 42 7.5t39 18t31 20t17 14.5v244h35v-289q0 -19 16 -19q5 0 14 3l6 -24q-21 -7 -34 -7q-6 0 -12.5 1t-12 5.5t-9 14t-3.5 25.5v10z
" />
    <glyph glyph-name="v" unicode="v" horiz-adv-x="303" 
d="M170 0h-36l-124 332h36l106 -285l106 285h35z" />
    <glyph glyph-name="w" unicode="w" horiz-adv-x="442" 
d="M334 0h-33l-79 292l-79 -292h-34l-95 332h33l79 -290l78 290h35l77 -290l79 290h33z" />
    <glyph glyph-name="x" unicode="x" horiz-adv-x="285" 
d="M239 0l-96 153l-98 -153h-36l111 174l-101 158h37l87 -136l86 136h36l-101 -158l112 -174h-37z" />
    <glyph glyph-name="y" unicode="y" horiz-adv-x="297" 
d="M153 -35q-18 -50 -39.5 -76.5t-65.5 -26.5q-17 0 -30 3.5t-21 8.5l7 30q9 -5 19 -9t27 -4q14 0 24.5 5.5t19.5 17.5t17.5 31t18.5 47l6 17l-132 323h36l112 -280l99 280h36z" />
    <glyph glyph-name="z" unicode="z" horiz-adv-x="280" 
d="M36 0v17l173 287h-171l6 28h215v-17l-178 -287h181v-28h-226z" />
    <glyph glyph-name="braceleft" unicode="{" horiz-adv-x="239" 
d="M217 -102q-43 0 -67.5 12t-37 38t-15.5 68t-3 102q0 18 -2 36t-8 33t-15.5 24.5t-24.5 11.5v23q15 2 24.5 11.5t15.5 24.5t8 33t2 36q0 60 3 101.5t15.5 68t37 38t67.5 11.5v-28q-25 0 -42 -5t-27 -24.5t-14.5 -57.5t-4.5 -104q0 -26 -3 -44.5t-9 -32t-13.5 -23
t-16.5 -17.5q18 -15 30 -39.5t12 -76.5q0 -66 4.5 -104t14.5 -57.5t27 -25t42 -5.5v-28z" />
    <glyph glyph-name="bar" unicode="|" horiz-adv-x="173" 
d="M69 -165v700h35v-700h-35z" />
    <glyph glyph-name="braceright" unicode="}" horiz-adv-x="239" 
d="M195 223q-15 -2 -24.5 -11.5t-15.5 -24.5t-8 -33t-2 -36q0 -60 -3 -102t-15.5 -68t-37 -38t-67.5 -12v28q25 0 42 5.5t27 25t14.5 57.5t4.5 104q0 26 3 44.5t8.5 32t13 22.5t16.5 17q-9 8 -16.5 17.5t-13 23t-8.5 32t-3 44.5q0 66 -4 104t-14.5 57.5t-27.5 24.5t-42 5v28
q43 0 67.5 -11.5t37 -38t15.5 -68t3 -101.5q0 -18 2 -36t8 -33t15.5 -24.5t24.5 -11.5v-23z" />
    <glyph glyph-name="asciitilde" unicode="~" horiz-adv-x="350" 
d="M325 239q-14 -21 -34.5 -37.5t-49.5 -16.5q-20 0 -38 6.5t-33 16.5q-14 8 -29 15t-31 7q-17 0 -33.5 -12.5t-28.5 -32.5l-23 24q14 23 34 39t51 16q20 0 37.5 -6t32.5 -16q16 -10 30.5 -16.5t29.5 -6.5q17 0 33.5 12.5t28.5 32.5z" />
    <glyph glyph-name="uni00A0" unicode="&#xa0;" horiz-adv-x="126" 
 />
    <glyph glyph-name="exclamdown" unicode="&#xa1;" horiz-adv-x="156" 
d="M105 443q0 -11 -8 -19t-19 -8t-19 8t-8 19t8 19t19 8t19 -8t8 -19zM57 0l7 355h28l7 -355h-42z" />
    <glyph glyph-name="cent" unicode="&#xa2;" horiz-adv-x="329" 
d="M295 354q-8 5 -34 10.5t-50 7.5v-278q24 0 45.5 5.5t41.5 13.5l-7 -36q-11 -5 -28.5 -9t-51.5 -6v-62h-24v62q-13 0 -36.5 5.5t-47 23.5t-41 52.5t-17.5 92.5q0 33 8.5 62.5t26.5 52t44.5 36.5t62.5 17v63h24v-62q36 -1 58.5 -6.5t32.5 -10.5zM187 371q-50 -6 -78 -41.5
t-28 -97.5q0 -40 10.5 -65.5t26 -40.5t34 -21.5t35.5 -8.5v275z" />
    <glyph glyph-name="sterling" unicode="&#xa3;" horiz-adv-x="407" 
d="M349 0h-272v20q25 54 30 100t5 96h-56v29h54q-2 9 -4.5 22t-4.5 27.5t-3.5 28.5t-1.5 24q0 26 7.5 49.5t24 41t42.5 27.5t64 10q37 0 65.5 -9t48.5 -20l-7 -37q-18 11 -43 22.5t-58 11.5q-21 0 -40 -3.5t-34 -14t-24 -29.5t-9 -49q0 -25 3.5 -50.5t8.5 -51.5h169v-29
h-166q0 -48 -4 -95t-27 -91h238z" />
    <glyph glyph-name="currency" unicode="&#xa4;" horiz-adv-x="414" 
d="M357 121l-21 -22l-46 47q-34 -29 -83 -29q-17 0 -40 6t-43 23l-46 -47l-21 22l47 45q-12 16 -20.5 36.5t-8.5 45.5t7.5 46t21.5 36l-47 46l21 22l46 -47q22 17 44 22.5t39 5.5q20 0 42.5 -6.5t39.5 -21.5l47 47l21 -22l-47 -46q15 -18 21.5 -39t6.5 -43q0 -46 -28 -82z
M308 249q0 23 -8.5 41.5t-22.5 31.5t-32 20t-37 7q-23 0 -41.5 -8t-32.5 -21.5t-21.5 -32t-7.5 -38.5q0 -21 8 -39.5t22 -32.5t32.5 -22t39.5 -8t39.5 8t32 22t21.5 32.5t8 39.5z" />
    <glyph glyph-name="yen" unicode="&#xa5;" horiz-adv-x="460" 
d="M257 214h101v-28h-110v-57h110v-28h-110v-101h-35v101h-110v28h110v57h-110v28h102l-154 253h38l141 -235l142 235h37z" />
    <glyph glyph-name="brokenbar" unicode="&#xa6;" horiz-adv-x="173" 
d="M69 242v293h35v-293h-35zM69 -165v295h35v-295h-35z" />
    <glyph glyph-name="section" unicode="&#xa7;" horiz-adv-x="390" 
d="M350 -39q0 -17 -6.5 -37t-23.5 -37.5t-47.5 -29.5t-79.5 -12q-35 0 -76.5 5t-73.5 20l7 35q15 -7 33.5 -12t38 -8.5t38 -5.5t32.5 -2q20 0 41 4t38 13.5t27.5 26t10.5 40.5q0 26 -20 43.5t-50 32t-64.5 27t-64.5 28t-50 36t-20 50.5q0 44 22.5 67t59.5 38q-9 4 -21 11.5
t-22.5 17t-18 21.5t-7.5 27q0 48 36 81t120 33q65 0 126 -23l-12 -35q-9 4 -23.5 9t-31 8.5t-32.5 6t-28 2.5q-20 0 -40 -3t-36.5 -11t-27 -22.5t-10.5 -38.5q0 -20 18.5 -34.5t46.5 -27t61 -24.5t61 -28t46.5 -37.5t18.5 -51.5q0 -23 -10 -41.5t-23 -31.5t-26 -20t-20 -8
q14 -6 28.5 -15.5t26.5 -22t20 -28.5t8 -36zM307 155q0 22 -12.5 38t-33.5 28.5t-49 23.5l-59 23q-32 -12 -53 -29.5t-21 -53.5q0 -21 14 -36t36.5 -27.5t50 -23l54.5 -20.5q13 4 26 11t23.5 17t17 22.5t6.5 26.5z" />
    <glyph glyph-name="dieresis" unicode="&#xa8;" horiz-adv-x="171" 
d="M171 419q0 -11 -7.5 -18t-17.5 -7q-11 0 -18 7t-7 18t7 18t18 7q10 0 17.5 -7t7.5 -18zM50 419q0 -11 -7.5 -18t-18.5 -7q-10 0 -17 7t-7 18t7 18t17 7q11 0 18.5 -7t7.5 -18z" />
    <glyph glyph-name="copyright" unicode="&#xa9;" horiz-adv-x="421" 
d="M371 316q0 -35 -12.5 -65t-34 -52t-51 -34.5t-63.5 -12.5q-35 0 -64.5 12.5t-51 34.5t-34 52t-12.5 65t12.5 65t34 52t51 34.5t64.5 12.5q34 0 63.5 -12.5t51 -34.5t34 -52t12.5 -65zM345 316q0 28 -10 53.5t-27.5 44.5t-42.5 30t-55 11t-55 -11t-43 -30t-27.5 -44.5
t-9.5 -53.5t9.5 -53.5t27.5 -44.5t43 -30t55 -11t55 11t42.5 30t27.5 44.5t10 53.5zM261 236q-14 -6 -40 -6q-15 0 -30 3.5t-27 13t-19.5 26t-7.5 41.5q0 51 24 70t63 19q15 0 27.5 -3.5t14.5 -4.5l-5 -26q-6 3 -15.5 5.5t-20.5 2.5q-13 0 -24 -2t-19.5 -8.5t-13 -19
t-4.5 -34.5q0 -58 60 -58q11 0 22.5 2.5t20.5 5.5z" />
    <glyph glyph-name="ordfeminine" unicode="&#xaa;" horiz-adv-x="279" 
d="M237 258q-11 -5 -22 -5q-7 0 -16 4.5t-9 25.5v5q-10 -17 -28.5 -26t-41.5 -9q-34 0 -51.5 16.5t-17.5 45.5q0 21 7.5 35t20 21.5t28.5 10.5t34 3q11 0 23 -1t26 -2v25q0 30 -17.5 37.5t-44.5 7.5q-31 0 -62 -12l4 25q29 10 66 10q40 0 59 -16.5t19 -63.5v-111
q0 -10 9 -10q5 0 11 2zM190 360l-25.5 2t-27.5 1q-28 0 -44.5 -8t-16.5 -35t12.5 -35.5t31.5 -8.5q38 0 54 19t16 42v23z" />
    <glyph glyph-name="guillemotleft" unicode="&#xab;" horiz-adv-x="306" 
d="M240 66l-85 120l85 117h40l-78 -117l78 -120h-40zM132 66l-85 120l85 117h40l-78 -117l78 -120h-40z" />
    <glyph glyph-name="logicalnot" unicode="&#xac;" horiz-adv-x="350" 
d="M282 134v147h-249v35h283v-182h-34z" />
    <glyph glyph-name="uni00AD" unicode="&#xad;" horiz-adv-x="274" 
d="M58 160v31h158v-31h-158z" />
    <glyph glyph-name="registered" unicode="&#xae;" horiz-adv-x="421" 
d="M371 316q0 -35 -12.5 -65t-34 -52t-51 -34.5t-63.5 -12.5q-35 0 -64.5 12.5t-51 34.5t-34 52t-12.5 65t12.5 65t34 52t51 34.5t64.5 12.5q34 0 63.5 -12.5t51 -34.5t34 -52t12.5 -65zM345 316q0 28 -10 53.5t-27.5 44.5t-42.5 30t-55 11t-55 -11t-43 -30t-27.5 -44.5
t-9.5 -53.5t9.5 -53.5t27.5 -44.5t43 -30t55 -11t55 11t42.5 30t27.5 44.5t10 53.5zM252 232l-29 60h-39v-60h-26v169h59q29 0 42.5 -17t13.5 -41q0 -30 -26 -43l34 -68h-29zM246 344q0 34 -29 34h-33v-64h33q8 0 18.5 4.5t10.5 25.5z" />
    <glyph glyph-name="macron" unicode="&#xaf;" horiz-adv-x="174" 
d="M0 402v30h174v-30h-174z" />
    <glyph glyph-name="degree" unicode="&#xb0;" horiz-adv-x="257" 
d="M221 407q0 -19 -7 -36t-19.5 -29.5t-29.5 -19.5t-36 -7q-20 0 -36.5 7t-29.5 19.5t-20 29.5t-7 36t7 36t20 29.5t29.5 20t36.5 7.5q19 0 36 -7.5t29.5 -20t19.5 -29.5t7 -36zM196 407q0 26 -17.5 48t-49.5 22t-50 -20.5t-18 -49.5q0 -30 19 -50t49 -20q32 0 49.5 22
t17.5 48z" />
    <glyph glyph-name="plusminus" unicode="&#xb1;" horiz-adv-x="350" 
d="M33 20v35h283v-35h-283zM193 246v-142h-35v142h-125v34h125v143h35v-143h123v-34h-123z" />
    <glyph glyph-name="uni00B2" unicode="&#xb2;" horiz-adv-x="290" 
d="M231 213h-188v11l65.5 53.5t50.5 43.5t32.5 38t11.5 37q0 31 -20 41t-47 10q-29 0 -50.5 -6t-36.5 -13l5 31q22 8 41.5 11.5t44.5 3.5q24 0 42 -6.5t29.5 -17.5t17 -25t5.5 -28q0 -23 -12.5 -43.5t-31.5 -39.5t-42 -37t-45 -37h134z" />
    <glyph glyph-name="uni00B3" unicode="&#xb3;" horiz-adv-x="279" 
d="M235 290q0 -21 -9.5 -36.5t-24.5 -25t-34.5 -14.5t-38.5 -5q-39 0 -64.5 9.5t-27.5 11.5l4 28q12 -8 32 -15.5t56 -7.5q10 0 23.5 2t24.5 7.5t19 16.5t8 29q0 16 -7.5 24.5t-18 12.5t-22 5t-18.5 1h-51v27h51q11 0 21.5 1.5t19 6t13.5 13t5 22.5q0 15 -7 23.5t-17 13
t-22.5 6t-22.5 1.5q-36 0 -55.5 -7t-27.5 -12l5 30q11 5 29.5 10.5t48.5 5.5q44 0 72.5 -18.5t28.5 -52.5q0 -27 -15 -39.5t-31 -17.5q19 -2 36 -16t17 -40z" />
    <glyph glyph-name="acute" unicode="&#xb4;" horiz-adv-x="120" 
d="M41 383h-41l66 65h54z" />
    <glyph glyph-name="mu" unicode="&#xb5;" horiz-adv-x="353" 
d="M49 -133v465h34v-221q0 -42 10.5 -62.5t50.5 -20.5q21 0 42 7.5t39 18t31 20t17 14.5v244h35v-289q0 -19 16 -19q5 0 14 3l6 -24q-21 -7 -34 -7q-6 0 -12.5 1t-12 5.5t-9 14t-3.5 25.5v10q-8 -8 -22.5 -17.5t-32.5 -18.5t-38.5 -15t-40.5 -6q-36 0 -56 13v-141h-34z" />
    <glyph glyph-name="paragraph" unicode="&#xb6;" horiz-adv-x="387" 
d="M299 -81v517h-42v-517h-35v265h-42q-69 0 -103 38.5t-34 102.5q0 65 34 103.5t103 38.5h154v-548h-35z" />
    <glyph glyph-name="periodcentered" unicode="&#xb7;" horiz-adv-x="135" 
d="M94 248q0 -11 -8 -19.5t-19 -8.5t-18.5 8.5t-7.5 19.5t7.5 18.5t18.5 7.5t19 -7.5t8 -18.5z" />
    <glyph glyph-name="cedilla" unicode="&#xb8;" horiz-adv-x="101" 
d="M40 -130h-40l50 87h51z" />
    <glyph glyph-name="uni00B9" unicode="&#xb9;" horiz-adv-x="188" 
d="M80 215v227l-48 -19v26l54 22h24v-256h-30z" />
    <glyph glyph-name="ordmasculine" unicode="&#xba;" horiz-adv-x="301" 
d="M248 363q0 -33 -8.5 -54.5t-22 -33.5t-31 -17t-36.5 -5q-18 0 -35.5 5t-31 17t-22 33.5t-8.5 54.5t8.5 54.5t22 34.5t31 18t35.5 5q19 0 36.5 -5t31 -18t22 -34.5t8.5 -54.5zM223 363q0 29 -6 46.5t-16.5 27t-23.5 12.5t-27 3t-27 -3t-23.5 -12.5t-16.5 -27t-6 -46.5
t6 -46t16.5 -26t23.5 -12t27 -3t27 3t23.5 12t16.5 26t6 46z" />
    <glyph glyph-name="guillemotright" unicode="&#xbb;" horiz-adv-x="306" 
d="M26 66l78 120l-78 117h40l85 -117l-85 -120h-40zM134 66l78 120l-78 117h40l85 -117l-85 -120h-40z" />
    <glyph glyph-name="onequarter" unicode="&#xbc;" horiz-adv-x="488" 
d="M453 60h-36v-60h-30v60h-139l-3 16l139 180h33v-169h39zM100 -12h-32l252 491h33zM80 215v227l-48 -19v26l54 22h24v-256h-30zM387 218l-101 -131h101v131z" />
    <glyph glyph-name="onehalf" unicode="&#xbd;" horiz-adv-x="527" 
d="M469 0h-188v11l65.5 53.5t50.5 43.5t32.5 38t11.5 37q0 31 -20 41t-47 10q-29 0 -50.5 -6t-36.5 -14l5 32q22 8 42 11.5t44 3.5t42 -7t29.5 -18t17 -24.5t5.5 -27.5q0 -23 -12.5 -43.5t-31.5 -39.5t-42 -37t-45 -37h134zM100 -12h-32l252 491h33zM80 215v227l-48 -19v26
l54 22h24v-256h-30z" />
    <glyph glyph-name="threequarters" unicode="&#xbe;" horiz-adv-x="583" 
d="M548 60h-36v-60h-30v60h-139l-3 16l139 180h33v-169h39zM195 -12h-32l252 491h33zM235 290q0 -21 -9.5 -36.5t-24.5 -25t-34.5 -14.5t-38.5 -5q-39 0 -64.5 9.5t-27.5 11.5l4 28q12 -8 32 -15.5t56 -7.5q10 0 23.5 2t24.5 7.5t19 16.5t8 29q0 16 -7.5 24.5t-18 12.5
t-22 5t-18.5 1h-51v27h51q11 0 21.5 1.5t19 6t13.5 13t5 22.5q0 15 -7 23.5t-17 13t-22.5 6t-22.5 1.5q-36 0 -55.5 -7t-27.5 -12l5 30q11 5 29.5 10.5t48.5 5.5q44 0 72.5 -18.5t28.5 -52.5q0 -27 -15 -39.5t-31 -17.5q19 -2 36 -16t17 -40zM482 218l-101 -131h101v131z
" />
    <glyph glyph-name="questiondown" unicode="&#xbf;" horiz-adv-x="302" 
d="M204 447q0 -11 -8 -19t-19 -8t-19 8t-8 19t8 19t19 8t19 -8t8 -19zM266 15q-20 -7 -46.5 -13t-52.5 -6q-22 0 -45 4t-42 16t-31.5 34t-12.5 57q0 39 19.5 64t42.5 44.5t42.5 38t19.5 44.5v60h35v-65q0 -31 -19.5 -52.5t-42.5 -41t-42.5 -41t-19.5 -51.5q0 -26 9 -41.5
t22.5 -23.5t30.5 -11t34 -3q23 0 49.5 5.5t44.5 14.5z" />
    <glyph glyph-name="Agrave" unicode="&#xc0;" horiz-adv-x="403" 
d="M349 0l-42 120h-211l-43 -120h-36l166 467h38l165 -467h-37zM202 417l-96 -267h190zM221 520l-80 65h55l65 -65h-40z" />
    <glyph glyph-name="Aacute" unicode="&#xc1;" horiz-adv-x="403" 
d="M349 0l-42 120h-211l-43 -120h-36l166 467h38l165 -467h-37zM202 417l-96 -267h190zM182 520h-41l66 65h54z" />
    <glyph glyph-name="Acircumflex" unicode="&#xc2;" horiz-adv-x="403" 
d="M349 0l-42 120h-211l-43 -120h-36l166 467h38l165 -467h-37zM202 417l-96 -267h190zM245 520l-44 46l-44 -46h-41l60 65h50l60 -65h-41z" />
    <glyph glyph-name="Atilde" unicode="&#xc3;" horiz-adv-x="403" 
d="M349 0l-42 120h-211l-43 -120h-36l166 467h38l165 -467h-37zM202 417l-96 -267h190zM297 585q0 -33 -10.5 -49.5t-36.5 -16.5q-9 0 -23 5t-28 11.5t-27 11.5t-19 5q-8 0 -10.5 -9.5t-2.5 -23.5h-35q0 30 10.5 49.5t36.5 19.5q10 0 23.5 -5t27 -11.5t26 -11.5t19.5 -5
q9 0 11 8t3 22h35z" />
    <glyph glyph-name="Adieresis" unicode="&#xc4;" horiz-adv-x="403" 
d="M349 0l-42 120h-211l-43 -120h-36l166 467h38l165 -467h-37zM202 417l-96 -267h190zM287 556q0 -11 -7.5 -18t-17.5 -7q-11 0 -18 7t-7 18t7 18t18 7q10 0 17.5 -7t7.5 -18zM166 556q0 -11 -7.5 -18t-18.5 -7q-10 0 -17 7t-7 18t7 18t17 7q11 0 18.5 -7t7.5 -18z" />
    <glyph glyph-name="Aring" unicode="&#xc5;" horiz-adv-x="403" 
d="M349 0l-42 120h-211l-43 -120h-36l166 467h38l165 -467h-37zM202 417l-96 -267h190zM257 565q0 -23 -16 -39.5t-39 -16.5t-39.5 16.5t-16.5 39.5t17 39.5t40 16.5t38.5 -16.5t15.5 -39.5zM233 565q0 13 -9 22t-22 9t-22.5 -9t-9.5 -22t9.5 -22t22.5 -9t22 9t9 22z" />
    <glyph glyph-name="AE" unicode="&#xc6;" horiz-adv-x="581" 
d="M543 0h-251v120h-171l-65 -120h-36l253 467h275l-5 -31h-216v-188h195l-5 -30h-190v-187h221zM292 436l-154 -285h154v285z" />
    <glyph glyph-name="Ccedilla" unicode="&#xc7;" horiz-adv-x="392" 
d="M359 8q-20 -7 -49 -11t-55 -4q-43 0 -82 14.5t-68.5 43.5t-47 73t-17.5 103q0 51 14 96t40.5 78.5t65.5 53.5t89 20q49 0 77 -8.5t39 -13.5l-6 -33q-19 9 -48 16.5t-58 7.5q-34 0 -66 -12.5t-56.5 -39.5t-39 -69t-14.5 -100q0 -52 16 -89.5t41.5 -62t57 -36t62.5 -11.5
q26 0 54 4.5t57 15.5zM185 -130h-40l50 87h51z" />
    <glyph glyph-name="Egrave" unicode="&#xc8;" horiz-adv-x="345" 
d="M307 0h-251v467h256l-5 -31h-216v-188h195l-5 -30h-190v-187h221zM192 520l-80 65h55l65 -65h-40z" />
    <glyph glyph-name="Eacute" unicode="&#xc9;" horiz-adv-x="345" 
d="M307 0h-251v467h256l-5 -31h-216v-188h195l-5 -30h-190v-187h221zM173 520h-41l66 65h54z" />
    <glyph glyph-name="Ecircumflex" unicode="&#xca;" horiz-adv-x="345" 
d="M307 0h-251v467h256l-5 -31h-216v-188h195l-5 -30h-190v-187h221zM226 520l-44 46l-44 -46h-41l60 65h50l60 -65h-41z" />
    <glyph glyph-name="Edieresis" unicode="&#xcb;" horiz-adv-x="345" 
d="M307 0h-251v467h256l-5 -31h-216v-188h195l-5 -30h-190v-187h221zM268 556q0 -11 -7.5 -18t-17.5 -7q-11 0 -18 7t-7 18t7 18t18 7q10 0 17.5 -7t7.5 -18zM147 556q0 -11 -7.5 -18t-18.5 -7q-10 0 -17 7t-7 18t7 18t17 7q11 0 18.5 -7t7.5 -18z" />
    <glyph glyph-name="Igrave" unicode="&#xcc;" horiz-adv-x="151" 
d="M58 0v467h35v-467h-35zM95 520l-80 65h55l65 -65h-40z" />
    <glyph glyph-name="Iacute" unicode="&#xcd;" horiz-adv-x="151" 
d="M58 0v467h35v-467h-35zM56 520h-41l66 65h54z" />
    <glyph glyph-name="Icircumflex" unicode="&#xce;" horiz-adv-x="151" 
d="M58 0v467h35v-467h-35zM120 520l-44 46l-44 -46h-41l60 65h50l60 -65h-41z" />
    <glyph glyph-name="Idieresis" unicode="&#xcf;" horiz-adv-x="151" 
d="M58 0v467h35v-467h-35zM161 556q0 -11 -7.5 -18t-17.5 -7q-11 0 -18 7t-7 18t7 18t18 7q10 0 17.5 -7t7.5 -18zM40 556q0 -11 -7.5 -18t-18.5 -7q-10 0 -17 7t-7 18t7 18t17 7q11 0 18.5 -7t7.5 -18z" />
    <glyph glyph-name="Eth" unicode="&#xd0;" horiz-adv-x="443" 
d="M400 233q0 -66 -15 -110.5t-40 -72t-58.5 -39t-69.5 -11.5h-152v216h-64v30h64v221h151q96 0 140 -61t44 -173zM364 233q0 69 -16.5 109t-39 61t-46.5 27t-40 6h-122v-190h73v-30h-73v-186h122q16 0 40.5 6t47 27t38.5 61t16 109z" />
    <glyph glyph-name="Ntilde" unicode="&#xd1;" horiz-adv-x="435" 
d="M349 0l-258 395v-395h-35v467h30l258 -394v394h35v-467h-30zM313 585q0 -33 -10.5 -49.5t-36.5 -16.5q-9 0 -23 5t-28 11.5t-27 11.5t-19 5q-8 0 -10.5 -9.5t-2.5 -23.5h-35q0 30 10.5 49.5t36.5 19.5q10 0 23.5 -5t27 -11.5t26 -11.5t19.5 -5q9 0 11 8t3 22h35z" />
    <glyph glyph-name="Ograve" unicode="&#xd2;" horiz-adv-x="461" 
d="M418 233q0 -69 -16.5 -115t-43 -74t-60 -39.5t-67.5 -11.5t-67.5 11.5t-60.5 39.5t-43.5 74t-16.5 115q0 70 16.5 116.5t43.5 74.5t60.5 39.5t67.5 11.5t67.5 -11.5t60 -39.5t43 -74.5t16.5 -116.5zM382 233q0 64 -14.5 105t-36.5 64.5t-48.5 32.5t-51.5 9t-51.5 -9
t-48.5 -32.5t-36.5 -64.5t-14.5 -105t14.5 -104.5t36.5 -64t48.5 -32t51.5 -8.5t51.5 8.5t48.5 32t36.5 64t14.5 104.5zM240 520l-80 65h55l65 -65h-40z" />
    <glyph glyph-name="Oacute" unicode="&#xd3;" horiz-adv-x="461" 
d="M418 233q0 -69 -16.5 -115t-43 -74t-60 -39.5t-67.5 -11.5t-67.5 11.5t-60.5 39.5t-43.5 74t-16.5 115q0 70 16.5 116.5t43.5 74.5t60.5 39.5t67.5 11.5t67.5 -11.5t60 -39.5t43 -74.5t16.5 -116.5zM382 233q0 64 -14.5 105t-36.5 64.5t-48.5 32.5t-51.5 9t-51.5 -9
t-48.5 -32.5t-36.5 -64.5t-14.5 -105t14.5 -104.5t36.5 -64t48.5 -32t51.5 -8.5t51.5 8.5t48.5 32t36.5 64t14.5 104.5zM211 520h-41l66 65h54z" />
    <glyph glyph-name="Ocircumflex" unicode="&#xd4;" horiz-adv-x="461" 
d="M418 233q0 -69 -16.5 -115t-43 -74t-60 -39.5t-67.5 -11.5t-67.5 11.5t-60.5 39.5t-43.5 74t-16.5 115q0 70 16.5 116.5t43.5 74.5t60.5 39.5t67.5 11.5t67.5 -11.5t60 -39.5t43 -74.5t16.5 -116.5zM382 233q0 64 -14.5 105t-36.5 64.5t-48.5 32.5t-51.5 9t-51.5 -9
t-48.5 -32.5t-36.5 -64.5t-14.5 -105t14.5 -104.5t36.5 -64t48.5 -32t51.5 -8.5t51.5 8.5t48.5 32t36.5 64t14.5 104.5zM274 520l-44 46l-44 -46h-41l60 65h50l60 -65h-41z" />
    <glyph glyph-name="Otilde" unicode="&#xd5;" horiz-adv-x="461" 
d="M418 233q0 -69 -16.5 -115t-43 -74t-60 -39.5t-67.5 -11.5t-67.5 11.5t-60.5 39.5t-43.5 74t-16.5 115q0 70 16.5 116.5t43.5 74.5t60.5 39.5t67.5 11.5t67.5 -11.5t60 -39.5t43 -74.5t16.5 -116.5zM382 233q0 64 -14.5 105t-36.5 64.5t-48.5 32.5t-51.5 9t-51.5 -9
t-48.5 -32.5t-36.5 -64.5t-14.5 -105t14.5 -104.5t36.5 -64t48.5 -32t51.5 -8.5t51.5 8.5t48.5 32t36.5 64t14.5 104.5zM326 585q0 -33 -10.5 -49.5t-36.5 -16.5q-9 0 -23 5t-28 11.5t-27 11.5t-19 5q-8 0 -10.5 -9.5t-2.5 -23.5h-35q0 30 10.5 49.5t36.5 19.5q10 0 23.5 -5
t27 -11.5t26 -11.5t19.5 -5q9 0 11 8t3 22h35z" />
    <glyph glyph-name="Odieresis" unicode="&#xd6;" horiz-adv-x="461" 
d="M418 233q0 -69 -16.5 -115t-43 -74t-60 -39.5t-67.5 -11.5t-67.5 11.5t-60.5 39.5t-43.5 74t-16.5 115q0 70 16.5 116.5t43.5 74.5t60.5 39.5t67.5 11.5t67.5 -11.5t60 -39.5t43 -74.5t16.5 -116.5zM382 233q0 64 -14.5 105t-36.5 64.5t-48.5 32.5t-51.5 9t-51.5 -9
t-48.5 -32.5t-36.5 -64.5t-14.5 -105t14.5 -104.5t36.5 -64t48.5 -32t51.5 -8.5t51.5 8.5t48.5 32t36.5 64t14.5 104.5zM316 556q0 -11 -7.5 -18t-17.5 -7q-11 0 -18 7t-7 18t7 18t18 7q10 0 17.5 -7t7.5 -18zM195 556q0 -11 -7.5 -18t-18.5 -7q-10 0 -17 7t-7 18t7 18t17 7
q11 0 18.5 -7t7.5 -18z" />
    <glyph glyph-name="multiply" unicode="&#xd7;" horiz-adv-x="350" 
d="M297 74l-122 123l-122 -123l-26 26l122 122l-121 121l25 26l122 -122l122 122l26 -26l-122 -121l122 -122z" />
    <glyph glyph-name="Oslash" unicode="&#xd8;" horiz-adv-x="461" 
d="M418 233q0 -69 -16.5 -115t-43 -74t-60 -39.5t-67.5 -11.5q-26 0 -50 6t-47 20l-26 -48h-33l35 66q-29 27 -48 74.5t-19 121.5q0 70 16.5 116.5t43.5 74.5t60.5 39.5t67.5 11.5q25 0 49 -5.5t47 -19.5l25 48h34l-35 -67q30 -27 48.5 -75t18.5 -123zM382 233
q0 62 -13.5 102t-34.5 64l-184 -351q20 -14 40.5 -19t40.5 -5q24 0 51 8.5t49 32t36.5 64t14.5 104.5zM311 420q-19 14 -39.5 19t-40.5 5q-25 0 -51.5 -9t-48.5 -32.5t-36.5 -64.5t-14.5 -105q0 -61 13 -101t34 -63z" />
    <glyph glyph-name="Ugrave" unicode="&#xd9;" horiz-adv-x="429" 
d="M376 155q0 -23 -4 -51t-20.5 -53t-48.5 -41.5t-88 -16.5t-88 16.5t-48.5 41.5t-21 53t-4.5 51v312h35v-312q0 -26 5.5 -49.5t19.5 -41.5t38.5 -29t63.5 -11t63.5 11t38.5 29t19 41.5t5 49.5v312h35v-312zM234 520l-80 65h55l65 -65h-40z" />
    <glyph glyph-name="Uacute" unicode="&#xda;" horiz-adv-x="429" 
d="M376 155q0 -23 -4 -51t-20.5 -53t-48.5 -41.5t-88 -16.5t-88 16.5t-48.5 41.5t-21 53t-4.5 51v312h35v-312q0 -26 5.5 -49.5t19.5 -41.5t38.5 -29t63.5 -11t63.5 11t38.5 29t19 41.5t5 49.5v312h35v-312zM205 520h-41l66 65h54z" />
    <glyph glyph-name="Ucircumflex" unicode="&#xdb;" horiz-adv-x="429" 
d="M376 155q0 -23 -4 -51t-20.5 -53t-48.5 -41.5t-88 -16.5t-88 16.5t-48.5 41.5t-21 53t-4.5 51v312h35v-312q0 -26 5.5 -49.5t19.5 -41.5t38.5 -29t63.5 -11t63.5 11t38.5 29t19 41.5t5 49.5v312h35v-312zM258 520l-44 46l-44 -46h-41l60 65h50l60 -65h-41z" />
    <glyph glyph-name="Udieresis" unicode="&#xdc;" horiz-adv-x="429" 
d="M376 155q0 -23 -4 -51t-20.5 -53t-48.5 -41.5t-88 -16.5t-88 16.5t-48.5 41.5t-21 53t-4.5 51v312h35v-312q0 -26 5.5 -49.5t19.5 -41.5t38.5 -29t63.5 -11t63.5 11t38.5 29t19 41.5t5 49.5v312h35v-312zM300 556q0 -11 -7.5 -18t-17.5 -7q-11 0 -18 7t-7 18t7 18t18 7
q10 0 17.5 -7t7.5 -18zM179 556q0 -11 -7.5 -18t-18.5 -7q-10 0 -17 7t-7 18t7 18t17 7q11 0 18.5 -7t7.5 -18z" />
    <glyph glyph-name="Yacute" unicode="&#xdd;" horiz-adv-x="378" 
d="M207 201v-201h-35v201l-162 266h38l141 -235l142 235h37zM170 520h-41l66 65h54z" />
    <glyph glyph-name="Thorn" unicode="&#xde;" horiz-adv-x="381" 
d="M347 234q0 -65 -34 -101.5t-103 -36.5h-119v-96h-35v467h35v-95h119q69 0 103 -37t34 -101zM311 234q0 36 -10.5 57t-26 32.5t-32.5 14.5t-30 3h-121v-214h121q13 0 30 3t32.5 14t26 32.5t10.5 57.5z" />
    <glyph glyph-name="germandbls" unicode="&#xdf;" horiz-adv-x="362" 
d="M328 97q0 -54 -32 -78t-78 -24q-32 0 -56 4.5t-41 10.5l7 33q16 -6 39 -11.5t51 -5.5q15 0 29 3.5t25 11.5t17.5 22t6.5 34q0 21 -9.5 36t-24 27t-31.5 22t-31.5 20.5t-24 23t-9.5 29.5q0 21 14 34.5t31 26.5t31 27t14 35q0 20 -7 33.5t-18.5 22t-26 12t-28.5 3.5
q-40 0 -66.5 -20.5t-26.5 -72.5v-356h-34v349q0 63 31 97t96 34q19 0 40 -5t37.5 -17t27.5 -31.5t11 -47.5q0 -27 -15 -45t-32.5 -31.5l-32.5 -24.5t-15 -23q0 -14 20.5 -26.5t45 -29t45 -41t20.5 -61.5z" />
    <glyph glyph-name="agrave" unicode="&#xe0;" horiz-adv-x="328" 
d="M319 3q-21 -7 -34 -7q-6 0 -12.5 1t-12 5.5t-9 13.5t-3.5 25v8q-9 -15 -22 -25.5t-28 -17t-30.5 -9t-29.5 -2.5q-51 0 -79 25.5t-28 70.5q0 33 11.5 53.5t31 32t44.5 15.5t52 4q20 0 39 -1t39 -3v41q0 26 -9 40.5t-23 22t-32 9.5t-37 2q-22 0 -44 -5t-49 -14l7 33
q24 8 51 12.5t51 4.5q30 0 52.5 -5.5t37.5 -19.5t22.5 -37.5t7.5 -60.5v-172q0 -19 16 -19q5 0 14 3zM248 164q-18 2 -38.5 3t-38.5 1q-22 0 -41 -2t-33 -9t-22 -21t-8 -37q0 -42 21 -57t50 -15q30 0 50.5 8.5t34 22.5t19.5 31.5t6 35.5v39zM184 383l-80 65h55l65 -65h-40z
" />
    <glyph glyph-name="aacute" unicode="&#xe1;" horiz-adv-x="328" 
d="M319 3q-21 -7 -34 -7q-6 0 -12.5 1t-12 5.5t-9 13.5t-3.5 25v8q-9 -15 -22 -25.5t-28 -17t-30.5 -9t-29.5 -2.5q-51 0 -79 25.5t-28 70.5q0 33 11.5 53.5t31 32t44.5 15.5t52 4q20 0 39 -1t39 -3v41q0 26 -9 40.5t-23 22t-32 9.5t-37 2q-22 0 -44 -5t-49 -14l7 33
q24 8 51 12.5t51 4.5q30 0 52.5 -5.5t37.5 -19.5t22.5 -37.5t7.5 -60.5v-172q0 -19 16 -19q5 0 14 3zM248 164q-18 2 -38.5 3t-38.5 1q-22 0 -41 -2t-33 -9t-22 -21t-8 -37q0 -42 21 -57t50 -15q30 0 50.5 8.5t34 22.5t19.5 31.5t6 35.5v39zM145 383h-41l66 65h54z" />
    <glyph glyph-name="acircumflex" unicode="&#xe2;" horiz-adv-x="328" 
d="M319 3q-21 -7 -34 -7q-6 0 -12.5 1t-12 5.5t-9 13.5t-3.5 25v8q-9 -15 -22 -25.5t-28 -17t-30.5 -9t-29.5 -2.5q-51 0 -79 25.5t-28 70.5q0 33 11.5 53.5t31 32t44.5 15.5t52 4q20 0 39 -1t39 -3v41q0 26 -9 40.5t-23 22t-32 9.5t-37 2q-22 0 -44 -5t-49 -14l7 33
q24 8 51 12.5t51 4.5q30 0 52.5 -5.5t37.5 -19.5t22.5 -37.5t7.5 -60.5v-172q0 -19 16 -19q5 0 14 3zM248 164q-18 2 -38.5 3t-38.5 1q-22 0 -41 -2t-33 -9t-22 -21t-8 -37q0 -42 21 -57t50 -15q30 0 50.5 8.5t34 22.5t19.5 31.5t6 35.5v39zM208 383l-44 46l-44 -46h-41
l60 65h50l60 -65h-41z" />
    <glyph glyph-name="atilde" unicode="&#xe3;" horiz-adv-x="328" 
d="M319 3q-21 -7 -34 -7q-6 0 -12.5 1t-12 5.5t-9 13.5t-3.5 25v8q-9 -15 -22 -25.5t-28 -17t-30.5 -9t-29.5 -2.5q-51 0 -79 25.5t-28 70.5q0 33 11.5 53.5t31 32t44.5 15.5t52 4q20 0 39 -1t39 -3v41q0 26 -9 40.5t-23 22t-32 9.5t-37 2q-22 0 -44 -5t-49 -14l7 33
q24 8 51 12.5t51 4.5q30 0 52.5 -5.5t37.5 -19.5t22.5 -37.5t7.5 -60.5v-172q0 -19 16 -19q5 0 14 3zM248 164q-18 2 -38.5 3t-38.5 1q-22 0 -41 -2t-33 -9t-22 -21t-8 -37q0 -42 21 -57t50 -15q30 0 50.5 8.5t34 22.5t19.5 31.5t6 35.5v39zM260 448q0 -33 -10.5 -49.5
t-36.5 -16.5q-9 0 -23 5t-28 11.5t-27 11.5t-19 5q-8 0 -10.5 -9.5t-2.5 -23.5h-35q0 30 10.5 49.5t36.5 19.5q10 0 23.5 -5t27 -11.5t26 -11.5t19.5 -5q9 0 11 8t3 22h35z" />
    <glyph glyph-name="adieresis" unicode="&#xe4;" horiz-adv-x="328" 
d="M319 3q-21 -7 -34 -7q-6 0 -12.5 1t-12 5.5t-9 13.5t-3.5 25v8q-9 -15 -22 -25.5t-28 -17t-30.5 -9t-29.5 -2.5q-51 0 -79 25.5t-28 70.5q0 33 11.5 53.5t31 32t44.5 15.5t52 4q20 0 39 -1t39 -3v41q0 26 -9 40.5t-23 22t-32 9.5t-37 2q-22 0 -44 -5t-49 -14l7 33
q24 8 51 12.5t51 4.5q30 0 52.5 -5.5t37.5 -19.5t22.5 -37.5t7.5 -60.5v-172q0 -19 16 -19q5 0 14 3zM248 164q-18 2 -38.5 3t-38.5 1q-22 0 -41 -2t-33 -9t-22 -21t-8 -37q0 -42 21 -57t50 -15q30 0 50.5 8.5t34 22.5t19.5 31.5t6 35.5v39zM249 419q0 -11 -7.5 -18
t-17.5 -7q-11 0 -18 7t-7 18t7 18t18 7q10 0 17.5 -7t7.5 -18zM128 419q0 -11 -7.5 -18t-18.5 -7q-10 0 -17 7t-7 18t7 18t17 7q11 0 18.5 -7t7.5 -18z" />
    <glyph glyph-name="aring" unicode="&#xe5;" horiz-adv-x="328" 
d="M319 3q-21 -7 -34 -7q-6 0 -12.5 1t-12 5.5t-9 13.5t-3.5 25v8q-9 -15 -22 -25.5t-28 -17t-30.5 -9t-29.5 -2.5q-51 0 -79 25.5t-28 70.5q0 33 11.5 53.5t31 32t44.5 15.5t52 4q20 0 39 -1t39 -3v41q0 26 -9 40.5t-23 22t-32 9.5t-37 2q-22 0 -44 -5t-49 -14l7 33
q24 8 51 12.5t51 4.5q30 0 52.5 -5.5t37.5 -19.5t22.5 -37.5t7.5 -60.5v-172q0 -19 16 -19q5 0 14 3zM248 164q-18 2 -38.5 3t-38.5 1q-22 0 -41 -2t-33 -9t-22 -21t-8 -37q0 -42 21 -57t50 -15q30 0 50.5 8.5t34 22.5t19.5 31.5t6 35.5v39zM219 428q0 -23 -16 -39.5
t-39 -16.5t-39.5 16.5t-16.5 39.5t17 39.5t40 16.5t38.5 -16.5t15.5 -39.5zM195 428q0 13 -9 22t-22 9t-22.5 -9t-9.5 -22t9.5 -22t22.5 -9t22 9t9 22z" />
    <glyph glyph-name="ae" unicode="&#xe6;" horiz-adv-x="571" 
d="M535 192q0 -16 -1 -24.5t-1 -10.5h-249q0 -44 11 -70t29 -39.5t40 -17t43 -3.5q68 0 119 23l-7 -35q-21 -10 -51.5 -15t-56.5 -5q-59 0 -93.5 17.5t-51.5 52.5q-5 -9 -14.5 -21.5t-25 -23t-37.5 -18t-51 -7.5q-51 0 -79 25.5t-28 70.5q0 31 10.5 50t28 29.5t41.5 14
t51 3.5q18 0 41 -1l45 -2v41q0 26 -9 42t-23 24.5t-32 11.5t-37 3q-23 0 -45 -5t-48 -14l7 33q27 10 51.5 13.5t50.5 3.5q39 0 68.5 -13t42.5 -51q17 28 45.5 46t75.5 18q36 0 62.5 -11t44 -30.5t25.5 -46.5t8 -58zM501 185q4 64 -26.5 93t-79.5 29q-33 0 -54.5 -12.5
t-34 -31.5t-17.5 -40t-5 -38h217zM248 157q-23 2 -43.5 2.5t-43.5 0.5q-22 0 -39.5 -1.5t-29.5 -8t-18.5 -19.5t-6.5 -37q0 -38 21 -52.5t50 -14.5q30 0 50.5 8.5t34 22.5t19.5 31.5t6 35.5v32z" />
    <glyph glyph-name="ccedilla" unicode="&#xe7;" horiz-adv-x="315" 
d="M287 288q-19 6 -42.5 11.5t-48.5 5.5q-57 0 -90 -36.5t-33 -103.5q0 -49 15 -76.5t36 -41t43.5 -16.5t37.5 -3q23 0 44 5t41 13l-7 -36q-13 -6 -37 -10.5t-47 -4.5q-25 0 -53.5 6.5t-52.5 25t-40 52.5t-16 90q0 35 9.5 66t29 54t49 36t69.5 13q36 0 58.5 -4.5t41.5 -12.5
zM147 -130h-40l50 87h51z" />
    <glyph glyph-name="egrave" unicode="&#xe8;" horiz-adv-x="362" 
d="M326 192q0 -16 -1 -24.5t-1 -10.5h-249q0 -44 11 -70t29 -39.5t41.5 -17t47.5 -3.5q61 0 113 23l-7 -35q-23 -11 -52.5 -15.5t-56.5 -4.5q-90 0 -126 42t-36 125q0 37 9 69t27 56t45.5 37.5t65.5 13.5q36 0 62.5 -11t43.5 -30.5t25.5 -46.5t8.5 -58zM292 185
q3 65 -27 93.5t-79 28.5q-33 0 -54.5 -12.5t-34 -31t-17.5 -40t-5 -38.5h217zM201 383l-80 65h55l65 -65h-40z" />
    <glyph glyph-name="eacute" unicode="&#xe9;" horiz-adv-x="362" 
d="M326 192q0 -16 -1 -24.5t-1 -10.5h-249q0 -44 11 -70t29 -39.5t41.5 -17t47.5 -3.5q61 0 113 23l-7 -35q-23 -11 -52.5 -15.5t-56.5 -4.5q-90 0 -126 42t-36 125q0 37 9 69t27 56t45.5 37.5t65.5 13.5q36 0 62.5 -11t43.5 -30.5t25.5 -46.5t8.5 -58zM292 185
q3 65 -27 93.5t-79 28.5q-33 0 -54.5 -12.5t-34 -31t-17.5 -40t-5 -38.5h217zM162 383h-41l66 65h54z" />
    <glyph glyph-name="ecircumflex" unicode="&#xea;" horiz-adv-x="362" 
d="M326 192q0 -16 -1 -24.5t-1 -10.5h-249q0 -44 11 -70t29 -39.5t41.5 -17t47.5 -3.5q61 0 113 23l-7 -35q-23 -11 -52.5 -15.5t-56.5 -4.5q-90 0 -126 42t-36 125q0 37 9 69t27 56t45.5 37.5t65.5 13.5q36 0 62.5 -11t43.5 -30.5t25.5 -46.5t8.5 -58zM292 185
q3 65 -27 93.5t-79 28.5q-33 0 -54.5 -12.5t-34 -31t-17.5 -40t-5 -38.5h217zM225 383l-44 46l-44 -46h-41l60 65h50l60 -65h-41z" />
    <glyph glyph-name="edieresis" unicode="&#xeb;" horiz-adv-x="362" 
d="M326 192q0 -16 -1 -24.5t-1 -10.5h-249q0 -44 11 -70t29 -39.5t41.5 -17t47.5 -3.5q61 0 113 23l-7 -35q-23 -11 -52.5 -15.5t-56.5 -4.5q-90 0 -126 42t-36 125q0 37 9 69t27 56t45.5 37.5t65.5 13.5q36 0 62.5 -11t43.5 -30.5t25.5 -46.5t8.5 -58zM292 185
q3 65 -27 93.5t-79 28.5q-33 0 -54.5 -12.5t-34 -31t-17.5 -40t-5 -38.5h217zM266 419q0 -11 -7.5 -18t-17.5 -7q-11 0 -18 7t-7 18t7 18t18 7q10 0 17.5 -7t7.5 -18zM145 419q0 -11 -7.5 -18t-18.5 -7q-10 0 -17 7t-7 18t7 18t17 7q11 0 18.5 -7t7.5 -18z" />
    <glyph glyph-name="igrave" unicode="&#xec;" horiz-adv-x="129" 
d="M48 332h34v-289q0 -19 16 -19q5 0 14 3l6 -24q-21 -7 -34 -7q-17 0 -26.5 8.5t-9.5 38.5v289zM84 383l-80 65h55l65 -65h-40z" />
    <glyph glyph-name="iacute" unicode="&#xed;" horiz-adv-x="129" 
d="M48 332h34v-289q0 -19 16 -19q5 0 14 3l6 -24q-21 -7 -34 -7q-17 0 -26.5 8.5t-9.5 38.5v289zM45 383h-41l66 65h54z" />
    <glyph glyph-name="icircumflex" unicode="&#xee;" horiz-adv-x="129" 
d="M48 332h34v-289q0 -19 16 -19q5 0 14 3l6 -24q-21 -7 -34 -7q-17 0 -26.5 8.5t-9.5 38.5v289zM109 383l-44 46l-44 -46h-41l60 65h50l60 -65h-41z" />
    <glyph glyph-name="idieresis" unicode="&#xef;" horiz-adv-x="129" 
d="M48 332h34v-289q0 -19 16 -19q5 0 14 3l6 -24q-21 -7 -34 -7q-17 0 -26.5 8.5t-9.5 38.5v289zM150 419q0 -11 -7.5 -18t-17.5 -7q-11 0 -18 7t-7 18t7 18t18 7q10 0 17.5 -7t7.5 -18zM29 419q0 -11 -7.5 -18t-18.5 -7q-10 0 -17 7t-7 18t7 18t17 7q11 0 18.5 -7t7.5 -18z
" />
    <glyph glyph-name="eth" unicode="&#xf0;" horiz-adv-x="379" 
d="M230 467l10.5 -17.5l11.5 -20.5l77 22l6 -25l-69 -21q12 -20 25.5 -47.5t24 -59t17.5 -65.5t7 -68q0 -51 -13 -84t-34 -52t-48 -26.5t-55 -7.5q-29 0 -56 7.5t-48 26.5t-34 52t-13 84t13 84.5t34 53t48 27.5t56 8q34 0 51.5 -4.5t28.5 -10.5l-16 36.5t-20 37.5l-76 -21
l-8 25l70 20l-14.5 24.5t-13.5 21.5h38zM304 165q0 39 -7.5 70t-13.5 46q-8 6 -32 16t-61 10q-21 0 -42 -5.5t-37 -21t-26 -43.5t-10 -72t10 -71t26 -42t37 -20t42 -5t41.5 5t36.5 20t26 42t10 71z" />
    <glyph glyph-name="ntilde" unicode="&#xf1;" horiz-adv-x="352" 
d="M83 280q8 7 22 17t32 19t38.5 15.5t41.5 6.5q26 0 43.5 -6t28 -19.5t14.5 -35t4 -53.5v-181q0 -19 16 -19q5 0 14 3l6 -24q-21 -7 -34 -7q-6 0 -12.5 1t-11.5 5.5t-8.5 14t-3.5 25.5v180q0 42 -10.5 62.5t-50.5 20.5q-21 0 -42 -7.5t-39 -18t-31 -20.5t-17 -15v-244h-34
v332h34v-52zM272 448q0 -33 -10.5 -49.5t-36.5 -16.5q-9 0 -23 5t-28 11.5t-27 11.5t-19 5q-8 0 -10.5 -9.5t-2.5 -23.5h-35q0 30 10.5 49.5t36.5 19.5q10 0 23.5 -5t27 -11.5t26 -11.5t19.5 -5q9 0 11 8t3 22h35z" />
    <glyph glyph-name="ograve" unicode="&#xf2;" horiz-adv-x="379" 
d="M340 165q0 -51 -13 -84t-34 -52t-48 -26.5t-56 -7.5t-56 7.5t-48 26.5t-33.5 52t-12.5 84t12.5 84.5t33.5 53t48 27.5t56 8t56 -8t48 -27.5t34 -53t13 -84.5zM304 165q0 44 -10 72t-26 43.5t-37 21t-42 5.5t-41.5 -5.5t-36.5 -21t-26 -43.5t-10 -72t10 -71t26 -42
t36.5 -20t41.5 -5t42 5t37 20t26 42t10 71zM209 383l-80 65h55l65 -65h-40z" />
    <glyph glyph-name="oacute" unicode="&#xf3;" horiz-adv-x="379" 
d="M340 165q0 -51 -13 -84t-34 -52t-48 -26.5t-56 -7.5t-56 7.5t-48 26.5t-33.5 52t-12.5 84t12.5 84.5t33.5 53t48 27.5t56 8t56 -8t48 -27.5t34 -53t13 -84.5zM304 165q0 44 -10 72t-26 43.5t-37 21t-42 5.5t-41.5 -5.5t-36.5 -21t-26 -43.5t-10 -72t10 -71t26 -42
t36.5 -20t41.5 -5t42 5t37 20t26 42t10 71zM170 383h-41l66 65h54z" />
    <glyph glyph-name="ocircumflex" unicode="&#xf4;" horiz-adv-x="379" 
d="M340 165q0 -51 -13 -84t-34 -52t-48 -26.5t-56 -7.5t-56 7.5t-48 26.5t-33.5 52t-12.5 84t12.5 84.5t33.5 53t48 27.5t56 8t56 -8t48 -27.5t34 -53t13 -84.5zM304 165q0 44 -10 72t-26 43.5t-37 21t-42 5.5t-41.5 -5.5t-36.5 -21t-26 -43.5t-10 -72t10 -71t26 -42
t36.5 -20t41.5 -5t42 5t37 20t26 42t10 71zM233 383l-44 46l-44 -46h-41l60 65h50l60 -65h-41z" />
    <glyph glyph-name="otilde" unicode="&#xf5;" horiz-adv-x="379" 
d="M340 165q0 -51 -13 -84t-34 -52t-48 -26.5t-56 -7.5t-56 7.5t-48 26.5t-33.5 52t-12.5 84t12.5 84.5t33.5 53t48 27.5t56 8t56 -8t48 -27.5t34 -53t13 -84.5zM304 165q0 44 -10 72t-26 43.5t-37 21t-42 5.5t-41.5 -5.5t-36.5 -21t-26 -43.5t-10 -72t10 -71t26 -42
t36.5 -20t41.5 -5t42 5t37 20t26 42t10 71zM285 448q0 -33 -10.5 -49.5t-36.5 -16.5q-9 0 -23 5t-28 11.5t-27 11.5t-19 5q-8 0 -10.5 -9.5t-2.5 -23.5h-35q0 30 10.5 49.5t36.5 19.5q10 0 23.5 -5t27 -11.5t26 -11.5t19.5 -5q9 0 11 8t3 22h35z" />
    <glyph glyph-name="odieresis" unicode="&#xf6;" horiz-adv-x="379" 
d="M340 165q0 -51 -13 -84t-34 -52t-48 -26.5t-56 -7.5t-56 7.5t-48 26.5t-33.5 52t-12.5 84t12.5 84.5t33.5 53t48 27.5t56 8t56 -8t48 -27.5t34 -53t13 -84.5zM304 165q0 44 -10 72t-26 43.5t-37 21t-42 5.5t-41.5 -5.5t-36.5 -21t-26 -43.5t-10 -72t10 -71t26 -42
t36.5 -20t41.5 -5t42 5t37 20t26 42t10 71zM275 419q0 -11 -7.5 -18t-17.5 -7q-11 0 -18 7t-7 18t7 18t18 7q10 0 17.5 -7t7.5 -18zM154 419q0 -11 -7.5 -18t-18.5 -7q-10 0 -17 7t-7 18t7 18t17 7q11 0 18.5 -7t7.5 -18z" />
    <glyph glyph-name="divide" unicode="&#xf7;" horiz-adv-x="350" 
d="M205 348q0 -13 -9 -21.5t-20 -8.5q-13 0 -21.5 8.5t-8.5 21.5q0 12 8.5 20.5t21.5 8.5q12 0 20.5 -8.5t8.5 -20.5zM33 208v34h283v-34h-283zM205 102q0 -13 -9 -21.5t-20 -8.5q-13 0 -21.5 8.5t-8.5 21.5t8.5 21t21.5 8q12 0 20.5 -8t8.5 -21z" />
    <glyph glyph-name="oslash" unicode="&#xf8;" horiz-adv-x="379" 
d="M340 165q0 -51 -13 -84t-34 -52t-48 -26.5t-56 -7.5q-35 0 -66 11l-18 -35h-33l25 49q-26 17 -42 52t-16 93q0 51 12.5 84.5t33.5 53t48 27.5t56 8q18 0 35.5 -2.5t33.5 -10.5l16 31h33l-24 -45q26 -19 41.5 -54t15.5 -92zM304 165q0 45 -10 72.5t-26 43.5l-130 -246
q12 -5 25 -6.5t26 -1.5q21 0 42 5t37 20t26 42t10 71zM243 297q-24 10 -54 10q-21 0 -41.5 -5.5t-36.5 -21t-26 -43.5t-10 -72q0 -46 10.5 -73.5t27.5 -41.5z" />
    <glyph glyph-name="ugrave" unicode="&#xf9;" horiz-adv-x="353" 
d="M273 52q-8 -8 -22.5 -17.5t-32.5 -18.5t-38.5 -15t-40.5 -6q-45 0 -67.5 23.5t-22.5 88.5v225h34v-221q0 -42 10.5 -62.5t50.5 -20.5q21 0 42 7.5t39 18t31 20t17 14.5v244h35v-289q0 -19 16 -19q5 0 14 3l6 -24q-21 -7 -34 -7q-6 0 -12.5 1t-12 5.5t-9 14t-3.5 25.5v10z
M196 383l-80 65h55l65 -65h-40z" />
    <glyph glyph-name="uacute" unicode="&#xfa;" horiz-adv-x="353" 
d="M273 52q-8 -8 -22.5 -17.5t-32.5 -18.5t-38.5 -15t-40.5 -6q-45 0 -67.5 23.5t-22.5 88.5v225h34v-221q0 -42 10.5 -62.5t50.5 -20.5q21 0 42 7.5t39 18t31 20t17 14.5v244h35v-289q0 -19 16 -19q5 0 14 3l6 -24q-21 -7 -34 -7q-6 0 -12.5 1t-12 5.5t-9 14t-3.5 25.5v10z
M157 383h-41l66 65h54z" />
    <glyph glyph-name="ucircumflex" unicode="&#xfb;" horiz-adv-x="353" 
d="M273 52q-8 -8 -22.5 -17.5t-32.5 -18.5t-38.5 -15t-40.5 -6q-45 0 -67.5 23.5t-22.5 88.5v225h34v-221q0 -42 10.5 -62.5t50.5 -20.5q21 0 42 7.5t39 18t31 20t17 14.5v244h35v-289q0 -19 16 -19q5 0 14 3l6 -24q-21 -7 -34 -7q-6 0 -12.5 1t-12 5.5t-9 14t-3.5 25.5v10z
M220 383l-44 46l-44 -46h-41l60 65h50l60 -65h-41z" />
    <glyph glyph-name="udieresis" unicode="&#xfc;" horiz-adv-x="353" 
d="M273 52q-8 -8 -22.5 -17.5t-32.5 -18.5t-38.5 -15t-40.5 -6q-45 0 -67.5 23.5t-22.5 88.5v225h34v-221q0 -42 10.5 -62.5t50.5 -20.5q21 0 42 7.5t39 18t31 20t17 14.5v244h35v-289q0 -19 16 -19q5 0 14 3l6 -24q-21 -7 -34 -7q-6 0 -12.5 1t-12 5.5t-9 14t-3.5 25.5v10z
M262 419q0 -11 -7.5 -18t-17.5 -7q-11 0 -18 7t-7 18t7 18t18 7q10 0 17.5 -7t7.5 -18zM141 419q0 -11 -7.5 -18t-18.5 -7q-10 0 -17 7t-7 18t7 18t17 7q11 0 18.5 -7t7.5 -18z" />
    <glyph glyph-name="yacute" unicode="&#xfd;" horiz-adv-x="297" 
d="M153 -35q-18 -50 -39.5 -76.5t-65.5 -26.5q-17 0 -30 3.5t-21 8.5l7 30q9 -5 19 -9t27 -4q14 0 24.5 5.5t19.5 17.5t17.5 31t18.5 47l6 17l-132 323h36l112 -280l99 280h36zM129 383h-41l66 65h54z" />
    <glyph glyph-name="thorn" unicode="&#xfe;" horiz-adv-x="375" 
d="M336 169q0 -39 -9 -71t-27 -55t-45.5 -35.5t-64.5 -12.5q-46 0 -71.5 11t-35.5 19v-158h-34v600h34v-186q4 7 13.5 17t24.5 19t36.5 15t48.5 6q25 0 48.5 -7.5t41.5 -27t29 -52t11 -82.5zM300 164q0 67 -21.5 105t-77.5 38q-29 0 -51 -9t-37 -23t-22.5 -31.5t-7.5 -34.5
v-148q4 -4 13.5 -10t22.5 -11t29.5 -9t34.5 -4q24 0 45.5 5t37.5 20t25 42t9 70z" />
    <glyph glyph-name="ydieresis" unicode="&#xff;" horiz-adv-x="297" 
d="M153 -35q-18 -50 -39.5 -76.5t-65.5 -26.5q-17 0 -30 3.5t-21 8.5l7 30q9 -5 19 -9t27 -4q14 0 24.5 5.5t19.5 17.5t17.5 31t18.5 47l6 17l-132 323h36l112 -280l99 280h36zM234 419q0 -11 -7.5 -18t-17.5 -7q-11 0 -18 7t-7 18t7 18t18 7q10 0 17.5 -7t7.5 -18zM113 419
q0 -11 -7.5 -18t-18.5 -7q-10 0 -17 7t-7 18t7 18t17 7q11 0 18.5 -7t7.5 -18z" />
    <glyph glyph-name="Amacron" unicode="&#x100;" horiz-adv-x="403" 
d="M349 0l-42 120h-211l-43 -120h-36l166 467h38l165 -467h-37zM202 417l-96 -267h190zM115 539v30h174v-30h-174z" />
    <glyph glyph-name="amacron" unicode="&#x101;" horiz-adv-x="328" 
d="M319 3q-21 -7 -34 -7q-6 0 -12.5 1t-12 5.5t-9 13.5t-3.5 25v8q-9 -15 -22 -25.5t-28 -17t-30.5 -9t-29.5 -2.5q-51 0 -79 25.5t-28 70.5q0 33 11.5 53.5t31 32t44.5 15.5t52 4q20 0 39 -1t39 -3v41q0 26 -9 40.5t-23 22t-32 9.5t-37 2q-22 0 -44 -5t-49 -14l7 33
q24 8 51 12.5t51 4.5q30 0 52.5 -5.5t37.5 -19.5t22.5 -37.5t7.5 -60.5v-172q0 -19 16 -19q5 0 14 3zM248 164q-18 2 -38.5 3t-38.5 1q-22 0 -41 -2t-33 -9t-22 -21t-8 -37q0 -42 21 -57t50 -15q30 0 50.5 8.5t34 22.5t19.5 31.5t6 35.5v39zM77 402v30h174v-30h-174z" />
    <glyph glyph-name="Abreve" unicode="&#x102;" horiz-adv-x="403" 
d="M349 0l-42 120h-211l-43 -120h-36l166 467h38l165 -467h-37zM202 417l-96 -267h190zM202 516q-36 0 -57 19.5t-25 50.5h30q4 -21 16.5 -33t35.5 -12t35.5 12t16.5 33h30q-4 -31 -25 -50.5t-57 -19.5z" />
    <glyph glyph-name="abreve" unicode="&#x103;" horiz-adv-x="328" 
d="M319 3q-21 -7 -34 -7q-6 0 -12.5 1t-12 5.5t-9 13.5t-3.5 25v8q-9 -15 -22 -25.5t-28 -17t-30.5 -9t-29.5 -2.5q-51 0 -79 25.5t-28 70.5q0 33 11.5 53.5t31 32t44.5 15.5t52 4q20 0 39 -1t39 -3v41q0 26 -9 40.5t-23 22t-32 9.5t-37 2q-22 0 -44 -5t-49 -14l7 33
q24 8 51 12.5t51 4.5q30 0 52.5 -5.5t37.5 -19.5t22.5 -37.5t7.5 -60.5v-172q0 -19 16 -19q5 0 14 3zM248 164q-18 2 -38.5 3t-38.5 1q-22 0 -41 -2t-33 -9t-22 -21t-8 -37q0 -42 21 -57t50 -15q30 0 50.5 8.5t34 22.5t19.5 31.5t6 35.5v39zM164 379q-36 0 -57 19.5
t-25 50.5h30q4 -21 16.5 -33t35.5 -12t35.5 12t16.5 33h30q-4 -31 -25 -50.5t-57 -19.5z" />
    <glyph glyph-name="Aogonek" unicode="&#x104;" horiz-adv-x="403" 
d="M411 -114q-5 -2 -15 -3.5t-15 -1.5q-35 0 -50 17.5t-15 45.5q0 18 9.5 32.5t23.5 23.5l-42 120h-211l-43 -120h-36l166 467h38l165 -467q-23 -12 -30.5 -26.5t-7.5 -30.5q0 -15 10 -24.5t31 -9.5q4 0 12 0.5t19 4.5zM202 417l-96 -267h190z" />
    <glyph glyph-name="aogonek" unicode="&#x105;" horiz-adv-x="328" 
d="M310 0q-23 -10 -34 -25.5t-11 -31.5q0 -15 10 -24.5t31 -9.5q4 0 12 0.5t19 4.5l-9 -28q-5 -2 -15 -3.5t-15 -1.5q-35 0 -50 17.5t-15 45.5q0 18 9 32.5t23 23.5q-8 3 -12.5 12t-4.5 29v8q-9 -15 -22 -25.5t-28 -17t-30.5 -9t-29.5 -2.5q-51 0 -79 25.5t-28 70.5
q0 33 11.5 53.5t31 32t44.5 15.5t52 4q20 0 39 -1t39 -3v41q0 26 -9 40.5t-23 22t-32 9.5t-37 2q-22 0 -44 -5t-49 -14l7 33q24 8 51 12.5t51 4.5q30 0 52.5 -5.5t37.5 -19.5t22.5 -37.5t7.5 -60.5v-172q0 -19 16 -19q5 0 14 3l6 -24zM248 164q-18 2 -38.5 3t-38.5 1
q-22 0 -41 -2t-33 -9t-22 -21t-8 -37q0 -42 21 -57t50 -15q30 0 50.5 8.5t34 22.5t19.5 31.5t6 35.5v39z" />
    <glyph glyph-name="Cacute" unicode="&#x106;" horiz-adv-x="392" 
d="M359 8q-20 -7 -49 -11t-55 -4q-43 0 -82 14.5t-68.5 43.5t-47 73t-17.5 103q0 51 14 96t40.5 78.5t65.5 53.5t89 20q49 0 77 -8.5t39 -13.5l-6 -33q-19 9 -48 16.5t-58 7.5q-34 0 -66 -12.5t-56.5 -39.5t-39 -69t-14.5 -100q0 -52 16 -89.5t41.5 -62t57 -36t62.5 -11.5
q26 0 54 4.5t57 15.5zM237 520h-41l66 65h54z" />
    <glyph glyph-name="cacute" unicode="&#x107;" horiz-adv-x="315" 
d="M287 288q-19 6 -42.5 11.5t-48.5 5.5q-57 0 -90 -36.5t-33 -103.5q0 -49 15 -76.5t36 -41t43.5 -16.5t37.5 -3q23 0 44 5t41 13l-7 -36q-13 -6 -37 -10.5t-47 -4.5q-25 0 -53.5 6.5t-52.5 25t-40 52.5t-16 90q0 35 9.5 66t29 54t49 36t69.5 13q36 0 58.5 -4.5t41.5 -12.5
zM179 383h-41l66 65h54z" />
    <glyph glyph-name="Ccircumflex" unicode="&#x108;" horiz-adv-x="392" 
d="M359 8q-20 -7 -49 -11t-55 -4q-43 0 -82 14.5t-68.5 43.5t-47 73t-17.5 103q0 51 14 96t40.5 78.5t65.5 53.5t89 20q49 0 77 -8.5t39 -13.5l-6 -33q-19 9 -48 16.5t-58 7.5q-34 0 -66 -12.5t-56.5 -39.5t-39 -69t-14.5 -100q0 -52 16 -89.5t41.5 -62t57 -36t62.5 -11.5
q26 0 54 4.5t57 15.5zM280 520l-44 46l-44 -46h-41l60 65h50l60 -65h-41z" />
    <glyph glyph-name="ccircumflex" unicode="&#x109;" horiz-adv-x="315" 
d="M287 288q-19 6 -42.5 11.5t-48.5 5.5q-57 0 -90 -36.5t-33 -103.5q0 -49 15 -76.5t36 -41t43.5 -16.5t37.5 -3q23 0 44 5t41 13l-7 -36q-13 -6 -37 -10.5t-47 -4.5q-25 0 -53.5 6.5t-52.5 25t-40 52.5t-16 90q0 35 9.5 66t29 54t49 36t69.5 13q36 0 58.5 -4.5t41.5 -12.5
zM232 383l-44 46l-44 -46h-41l60 65h50l60 -65h-41z" />
    <glyph glyph-name="Cdotaccent" unicode="&#x10a;" horiz-adv-x="392" 
d="M359 8q-20 -7 -49 -11t-55 -4q-43 0 -82 14.5t-68.5 43.5t-47 73t-17.5 103q0 51 14 96t40.5 78.5t65.5 53.5t89 20q49 0 77 -8.5t39 -13.5l-6 -33q-19 9 -48 16.5t-58 7.5q-34 0 -66 -12.5t-56.5 -39.5t-39 -69t-14.5 -100q0 -52 16 -89.5t41.5 -62t57 -36t62.5 -11.5
q26 0 54 4.5t57 15.5zM271 556q0 -11 -7.5 -18t-18.5 -7q-10 0 -17 7t-7 18t7 18t17 7q11 0 18.5 -7t7.5 -18z" />
    <glyph glyph-name="cdotaccent" unicode="&#x10b;" horiz-adv-x="315" 
d="M287 288q-19 6 -42.5 11.5t-48.5 5.5q-57 0 -90 -36.5t-33 -103.5q0 -49 15 -76.5t36 -41t43.5 -16.5t37.5 -3q23 0 44 5t41 13l-7 -36q-13 -6 -37 -10.5t-47 -4.5q-25 0 -53.5 6.5t-52.5 25t-40 52.5t-16 90q0 35 9.5 66t29 54t49 36t69.5 13q36 0 58.5 -4.5t41.5 -12.5
zM213 419q0 -11 -7.5 -18t-18.5 -7q-10 0 -17 7t-7 18t7 18t17 7q11 0 18.5 -7t7.5 -18z" />
    <glyph glyph-name="Ccaron" unicode="&#x10c;" horiz-adv-x="392" 
d="M359 8q-20 -7 -49 -11t-55 -4q-43 0 -82 14.5t-68.5 43.5t-47 73t-17.5 103q0 51 14 96t40.5 78.5t65.5 53.5t89 20q49 0 77 -8.5t39 -13.5l-6 -33q-19 9 -48 16.5t-58 7.5q-34 0 -66 -12.5t-56.5 -39.5t-39 -69t-14.5 -100q0 -52 16 -89.5t41.5 -62t57 -36t62.5 -11.5
q26 0 54 4.5t57 15.5zM202 585l44 -46l44 46h41l-60 -65h-50l-60 65h41z" />
    <glyph glyph-name="ccaron" unicode="&#x10d;" horiz-adv-x="315" 
d="M287 288q-19 6 -42.5 11.5t-48.5 5.5q-57 0 -90 -36.5t-33 -103.5q0 -49 15 -76.5t36 -41t43.5 -16.5t37.5 -3q23 0 44 5t41 13l-7 -36q-13 -6 -37 -10.5t-47 -4.5q-25 0 -53.5 6.5t-52.5 25t-40 52.5t-16 90q0 35 9.5 66t29 54t49 36t69.5 13q36 0 58.5 -4.5t41.5 -12.5
zM152 448l44 -46l44 46h41l-60 -65h-50l-60 65h41z" />
    <glyph glyph-name="Dcaron" unicode="&#x10e;" horiz-adv-x="434" 
d="M391 233q0 -66 -15 -110.5t-40 -72t-58.5 -39t-69.5 -11.5h-152v467h151q96 0 140 -61t44 -173zM355 233q0 69 -16.5 109t-39 61t-46.5 27t-40 6h-122v-406h122q16 0 40.5 6t47 27t38.5 61t16 109zM143 585l44 -46l44 46h41l-60 -65h-50l-60 65h41z" />
    <glyph glyph-name="dcaron" unicode="&#x10f;" horiz-adv-x="378" 
d="M297 289q-21 6 -45.5 11.5t-55.5 5.5q-24 0 -45.5 -5t-37 -20t-24.5 -42t-9 -70q0 -68 21 -105t77 -37q29 0 51.5 8.5t37.5 22.5t22.5 31.5t7.5 35.5v164zM367 3q-13 -5 -21 -6t-13 -1q-7 0 -13.5 1t-11.5 6t-8 15t-3 27v7q-5 -8 -15 -18t-25.5 -18.5t-36.5 -14.5t-47 -6
q-25 0 -48.5 7.5t-41.5 27t-28.5 52t-10.5 82.5q0 39 8.5 71t26.5 55t45 35.5t65 12.5q33 0 60 -4.5t48 -10.5v144h34v-424q0 -19 16 -19q5 0 14 3zM444 444q0 -23 -17.5 -43.5t-36.5 -31.5l-9 20q6 3 17.5 14t11.5 19q0 7 -9 13.5t-9 19.5q0 8 7 15t18 7t19 -9t8 -24z" />
    <glyph glyph-name="Dcroat" unicode="&#x110;" horiz-adv-x="443" 
d="M400 233q0 -66 -15 -110.5t-40 -72t-58.5 -39t-69.5 -11.5h-152v216h-64v30h64v221h151q96 0 140 -61t44 -173zM364 233q0 69 -16.5 109t-39 61t-46.5 27t-40 6h-122v-190h73v-30h-73v-186h122q16 0 40.5 6t47 27t38.5 61t16 109z" />
    <glyph glyph-name="dcroat" unicode="&#x111;" horiz-adv-x="378" 
d="M367 3q-13 -5 -21 -6t-13 -1q-7 0 -13.5 1t-11.5 6t-8 15t-3 27v7q-5 -8 -15 -18t-25.5 -18.5t-36.5 -14.5t-47 -6q-25 0 -48.5 7.5t-41.5 27t-28.5 52t-10.5 82.5q0 39 8.5 71t26.5 55t45 35.5t65 12.5q33 0 60 -4.5t48 -10.5v66h-122v28h122v50h34v-50h50v-28h-50v-346
q0 -19 16 -19q5 0 14 3zM297 289q-21 6 -45.5 11.5t-55.5 5.5q-24 0 -45.5 -5t-37 -20t-24.5 -42t-9 -70q0 -68 21 -105t77 -37q29 0 51.5 8.5t37.5 22.5t22.5 31.5t7.5 35.5v164z" />
    <glyph glyph-name="Emacron" unicode="&#x112;" horiz-adv-x="345" 
d="M307 0h-251v467h256l-5 -31h-216v-188h195l-5 -30h-190v-187h221zM96 539v30h174v-30h-174z" />
    <glyph glyph-name="emacron" unicode="&#x113;" horiz-adv-x="362" 
d="M326 192q0 -16 -1 -24.5t-1 -10.5h-249q0 -44 11 -70t29 -39.5t41.5 -17t47.5 -3.5q61 0 113 23l-7 -35q-23 -11 -52.5 -15.5t-56.5 -4.5q-90 0 -126 42t-36 125q0 37 9 69t27 56t45.5 37.5t65.5 13.5q36 0 62.5 -11t43.5 -30.5t25.5 -46.5t8.5 -58zM292 185
q3 65 -27 93.5t-79 28.5q-33 0 -54.5 -12.5t-34 -31t-17.5 -40t-5 -38.5h217zM99 402v30h174v-30h-174z" />
    <glyph glyph-name="Ebreve" unicode="&#x114;" horiz-adv-x="345" 
d="M307 0h-251v467h256l-5 -31h-216v-188h195l-5 -30h-190v-187h221zM188 516q-36 0 -57 19.5t-25 50.5h30q4 -21 16.5 -33t35.5 -12t35.5 12t16.5 33h30q-4 -31 -25 -50.5t-57 -19.5z" />
    <glyph glyph-name="ebreve" unicode="&#x115;" horiz-adv-x="362" 
d="M326 192q0 -16 -1 -24.5t-1 -10.5h-249q0 -44 11 -70t29 -39.5t41.5 -17t47.5 -3.5q61 0 113 23l-7 -35q-23 -11 -52.5 -15.5t-56.5 -4.5q-90 0 -126 42t-36 125q0 37 9 69t27 56t45.5 37.5t65.5 13.5q36 0 62.5 -11t43.5 -30.5t25.5 -46.5t8.5 -58zM292 185
q3 65 -27 93.5t-79 28.5q-33 0 -54.5 -12.5t-34 -31t-17.5 -40t-5 -38.5h217zM189 379q-36 0 -57 19.5t-25 50.5h30q4 -21 16.5 -33t35.5 -12t35.5 12t16.5 33h30q-4 -31 -25 -50.5t-57 -19.5z" />
    <glyph glyph-name="Edotaccent" unicode="&#x116;" horiz-adv-x="345" 
d="M307 0h-251v467h256l-5 -31h-216v-188h195l-5 -30h-190v-187h221zM208 556q0 -11 -7.5 -18t-18.5 -7q-10 0 -17 7t-7 18t7 18t17 7q11 0 18.5 -7t7.5 -18z" />
    <glyph glyph-name="edotaccent" unicode="&#x117;" horiz-adv-x="362" 
d="M326 192q0 -16 -1 -24.5t-1 -10.5h-249q0 -44 11 -70t29 -39.5t41.5 -17t47.5 -3.5q61 0 113 23l-7 -35q-23 -11 -52.5 -15.5t-56.5 -4.5q-90 0 -126 42t-36 125q0 37 9 69t27 56t45.5 37.5t65.5 13.5q36 0 62.5 -11t43.5 -30.5t25.5 -46.5t8.5 -58zM292 185
q3 65 -27 93.5t-79 28.5q-33 0 -54.5 -12.5t-34 -31t-17.5 -40t-5 -38.5h217zM211 419q0 -11 -7.5 -18t-18.5 -7q-10 0 -17 7t-7 18t7 18t17 7q11 0 18.5 -7t7.5 -18z" />
    <glyph glyph-name="Eogonek" unicode="&#x118;" horiz-adv-x="345" 
d="M56 0v467h256l-5 -31h-216v-188h195l-5 -30h-190v-187h221l-5 -31h-27q-23 -10 -34 -25.5t-11 -31.5q0 -15 10 -24.5t31 -9.5q4 0 12 0.5t19 4.5l-9 -28q-5 -2 -15 -3.5t-15 -1.5q-35 0 -50 17.5t-15 45.5q0 18 9.5 32.5t23.5 23.5h-180z" />
    <glyph glyph-name="eogonek" unicode="&#x119;" horiz-adv-x="362" 
d="M295 -114q-5 -2 -15 -3.5t-15 -1.5q-35 0 -50 17.5t-15 45.5q0 17 7.5 30t19.5 22q-7 -1 -13.5 -1h-12.5q-90 0 -126 42t-36 125q0 37 9 69t27 56t45.5 37.5t65.5 13.5q36 0 62.5 -11t43.5 -30.5t25.5 -46.5t8.5 -58q0 -16 -1 -24.5t-1 -10.5h-249q0 -44 11 -70t29 -39.5
t41.5 -17t47.5 -3.5q61 0 113 23l-7 -35q-5 -3 -12 -5.5t-19 -5.5q-23 -10 -35 -27.5t-12 -33.5q0 -15 10 -24.5t31 -9.5q4 0 12 0.5t19 4.5zM292 185q3 65 -27 93.5t-79 28.5q-33 0 -54.5 -12.5t-34 -31t-17.5 -40t-5 -38.5h217z" />
    <glyph glyph-name="Ecaron" unicode="&#x11a;" horiz-adv-x="345" 
d="M307 0h-251v467h256l-5 -31h-216v-188h195l-5 -30h-190v-187h221zM139 585l44 -46l44 46h41l-60 -65h-50l-60 65h41z" />
    <glyph glyph-name="ecaron" unicode="&#x11b;" horiz-adv-x="362" 
d="M326 192q0 -16 -1 -24.5t-1 -10.5h-249q0 -44 11 -70t29 -39.5t41.5 -17t47.5 -3.5q61 0 113 23l-7 -35q-23 -11 -52.5 -15.5t-56.5 -4.5q-90 0 -126 42t-36 125q0 37 9 69t27 56t45.5 37.5t65.5 13.5q36 0 62.5 -11t43.5 -30.5t25.5 -46.5t8.5 -58zM292 185
q3 65 -27 93.5t-79 28.5q-33 0 -54.5 -12.5t-34 -31t-17.5 -40t-5 -38.5h217zM142 448l44 -46l44 46h41l-60 -65h-50l-60 65h41z" />
    <glyph glyph-name="Gcircumflex" unicode="&#x11c;" horiz-adv-x="443" 
d="M392 15q-14 -6 -49.5 -14t-85.5 -8q-43 0 -82 14.5t-68.5 43.5t-47 73t-17.5 103q0 51 14 96t40.5 78.5t65.5 53.5t89 20q49 0 81 -7.5t49 -14.5l-6 -33q-20 8 -53.5 16t-66.5 8q-34 0 -66 -12.5t-56.5 -39.5t-39 -69t-14.5 -100q0 -67 23 -106.5t53.5 -60t59.5 -26.5
t41 -6q23 0 51.5 4t49.5 12v178h-133l6 31h162v-234zM286 520l-44 46l-44 -46h-41l60 65h50l60 -65h-41z" />
    <glyph glyph-name="gcircumflex" unicode="&#x11d;" horiz-adv-x="375" 
d="M326 15q0 -52 -11.5 -82.5t-32.5 -46t-49 -20t-61 -4.5q-71 0 -125 29l6 31q27 -14 60 -22t62 -8q28 0 50 4t37 16t22.5 33t7.5 56v55q-5 -10 -15 -21t-25 -20t-36 -14.5t-48 -5.5q-25 0 -48.5 7.5t-41.5 27t-28.5 52t-10.5 82.5q0 88 39.5 131t113.5 43q52 0 82.5 -6
t51.5 -13v-304zM292 294q-16 4 -38 8t-56 4q-23 0 -45 -3.5t-39.5 -17.5t-28 -41.5t-10.5 -74.5q0 -68 21 -105t77 -37q29 0 51.5 8.5t37.5 22.5t22.5 31.5t7.5 35.5v169zM237 383l-44 46l-44 -46h-41l60 65h50l60 -65h-41z" />
    <glyph glyph-name="Gbreve" unicode="&#x11e;" horiz-adv-x="443" 
d="M392 15q-14 -6 -49.5 -14t-85.5 -8q-43 0 -82 14.5t-68.5 43.5t-47 73t-17.5 103q0 51 14 96t40.5 78.5t65.5 53.5t89 20q49 0 81 -7.5t49 -14.5l-6 -33q-20 8 -53.5 16t-66.5 8q-34 0 -66 -12.5t-56.5 -39.5t-39 -69t-14.5 -100q0 -67 23 -106.5t53.5 -60t59.5 -26.5
t41 -6q23 0 51.5 4t49.5 12v178h-133l6 31h162v-234zM247 516q-36 0 -57 19.5t-25 50.5h30q4 -21 16.5 -33t35.5 -12t35.5 12t16.5 33h30q-4 -31 -25 -50.5t-57 -19.5z" />
    <glyph glyph-name="gbreve" unicode="&#x11f;" horiz-adv-x="375" 
d="M326 15q0 -52 -11.5 -82.5t-32.5 -46t-49 -20t-61 -4.5q-71 0 -125 29l6 31q27 -14 60 -22t62 -8q28 0 50 4t37 16t22.5 33t7.5 56v55q-5 -10 -15 -21t-25 -20t-36 -14.5t-48 -5.5q-25 0 -48.5 7.5t-41.5 27t-28.5 52t-10.5 82.5q0 88 39.5 131t113.5 43q52 0 82.5 -6
t51.5 -13v-304zM292 294q-16 4 -38 8t-56 4q-23 0 -45 -3.5t-39.5 -17.5t-28 -41.5t-10.5 -74.5q0 -68 21 -105t77 -37q29 0 51.5 8.5t37.5 22.5t22.5 31.5t7.5 35.5v169zM190 379q-36 0 -57 19.5t-25 50.5h30q4 -21 16.5 -33t35.5 -12t35.5 12t16.5 33h30q-4 -31 -25 -50.5
t-57 -19.5z" />
    <glyph glyph-name="Gdotaccent" unicode="&#x120;" horiz-adv-x="443" 
d="M392 15q-14 -6 -49.5 -14t-85.5 -8q-43 0 -82 14.5t-68.5 43.5t-47 73t-17.5 103q0 51 14 96t40.5 78.5t65.5 53.5t89 20q49 0 81 -7.5t49 -14.5l-6 -33q-20 8 -53.5 16t-66.5 8q-34 0 -66 -12.5t-56.5 -39.5t-39 -69t-14.5 -100q0 -67 23 -106.5t53.5 -60t59.5 -26.5
t41 -6q23 0 51.5 4t49.5 12v178h-133l6 31h162v-234zM277 556q0 -11 -7.5 -18t-18.5 -7q-10 0 -17 7t-7 18t7 18t17 7q11 0 18.5 -7t7.5 -18z" />
    <glyph glyph-name="gdotaccent" unicode="&#x121;" horiz-adv-x="375" 
d="M326 15q0 -52 -11.5 -82.5t-32.5 -46t-49 -20t-61 -4.5q-71 0 -125 29l6 31q27 -14 60 -22t62 -8q28 0 50 4t37 16t22.5 33t7.5 56v55q-5 -10 -15 -21t-25 -20t-36 -14.5t-48 -5.5q-25 0 -48.5 7.5t-41.5 27t-28.5 52t-10.5 82.5q0 88 39.5 131t113.5 43q52 0 82.5 -6
t51.5 -13v-304zM292 294q-16 4 -38 8t-56 4q-23 0 -45 -3.5t-39.5 -17.5t-28 -41.5t-10.5 -74.5q0 -68 21 -105t77 -37q29 0 51.5 8.5t37.5 22.5t22.5 31.5t7.5 35.5v169zM220 419q0 -11 -7.5 -18t-18.5 -7q-10 0 -17 7t-7 18t7 18t17 7q11 0 18.5 -7t7.5 -18z" />
    <glyph glyph-name="uni0122" unicode="&#x122;" horiz-adv-x="443" 
d="M392 15q-14 -6 -49.5 -14t-85.5 -8q-43 0 -82 14.5t-68.5 43.5t-47 73t-17.5 103q0 51 14 96t40.5 78.5t65.5 53.5t89 20q49 0 81 -7.5t49 -14.5l-6 -33q-20 8 -53.5 16t-66.5 8q-34 0 -66 -12.5t-56.5 -39.5t-39 -69t-14.5 -100q0 -67 23 -106.5t53.5 -60t59.5 -26.5
t41 -6q23 0 51.5 4t49.5 12v178h-133l6 31h162v-234zM287 -76q0 -23 -17.5 -43.5t-36.5 -31.5l-9 20q6 3 17.5 14t11.5 19q0 7 -9 13.5t-9 19.5q0 8 7 15t18 7t19 -9t8 -24z" />
    <glyph glyph-name="uni0123" unicode="&#x123;" horiz-adv-x="375" 
d="M326 15q0 -52 -11.5 -82.5t-32.5 -46t-49 -20t-61 -4.5q-71 0 -125 29l6 31q27 -14 60 -22t62 -8q28 0 50 4t37 16t22.5 33t7.5 56v55q-5 -10 -15 -21t-25 -20t-36 -14.5t-48 -5.5q-25 0 -48.5 7.5t-41.5 27t-28.5 52t-10.5 82.5q0 88 39.5 131t113.5 43q52 0 82.5 -6
t51.5 -13v-304zM292 294q-16 4 -38 8t-56 4q-23 0 -45 -3.5t-39.5 -17.5t-28 -41.5t-10.5 -74.5q0 -68 21 -105t77 -37q29 0 51.5 8.5t37.5 22.5t22.5 31.5t7.5 35.5v169zM157 416q0 23 17.5 43.5t36.5 31.5l9 -20q-6 -3 -17.5 -14t-11.5 -19q0 -7 9 -13.5t9 -19.5
q0 -8 -7 -15t-18 -7t-19 9t-8 24z" />
    <glyph glyph-name="Hcircumflex" unicode="&#x124;" horiz-adv-x="435" 
d="M344 0v218h-253v-218h-35v467h35v-219h253v219h35v-467h-35zM259 520l-44 46l-44 -46h-41l60 65h50l60 -65h-41z" />
    <glyph glyph-name="hcircumflex" unicode="&#x125;" horiz-adv-x="352" 
d="M273 222q0 42 -10.5 62.5t-50.5 20.5q-21 0 -42 -7.5t-39 -18t-31 -20.5t-17 -15v-244h-34v467h34v-187q8 7 22 17t32 19t38.5 15.5t41.5 6.5q26 0 43.5 -6t28 -19.5t14.5 -35t4 -53.5v-181q0 -19 16 -19q5 0 14 3l6 -24q-21 -7 -34 -7q-6 0 -12.5 1t-11.5 5.5t-8.5 14
t-3.5 25.5v180zM110 520l-44 46l-44 -46h-41l60 65h50l60 -65h-41z" />
    <glyph glyph-name="Hbar" unicode="&#x126;" horiz-adv-x="435" 
d="M344 0v218h-253v-218h-35v348h-60v30h60v89h35v-89h253v89h35v-89h60v-30h-60v-348h-35zM344 248v100h-253v-100h253z" />
    <glyph glyph-name="hbar" unicode="&#x127;" horiz-adv-x="352" 
d="M273 222q0 42 -10.5 62.5t-50.5 20.5q-21 0 -42 -7.5t-39 -18t-31 -20.5t-17 -15v-244h-34v389h-50v28h50v50h34v-50h122v-28h-122v-109q8 7 22 17t32 19t38.5 15.5t41.5 6.5q26 0 43.5 -6t28 -19.5t14.5 -35t4 -53.5v-181q0 -19 16 -19q5 0 14 3l6 -24q-21 -7 -34 -7
q-6 0 -12.5 1t-11.5 5.5t-8.5 14t-3.5 25.5v180z" />
    <glyph glyph-name="Itilde" unicode="&#x128;" horiz-adv-x="151" 
d="M58 0v467h35v-467h-35zM171 585q0 -33 -10.5 -49.5t-36.5 -16.5q-9 0 -23 5t-28 11.5t-27 11.5t-19 5q-8 0 -10.5 -9.5t-2.5 -23.5h-35q0 30 10.5 49.5t36.5 19.5q10 0 23.5 -5t27 -11.5t26 -11.5t19.5 -5q9 0 11 8t3 22h35z" />
    <glyph glyph-name="itilde" unicode="&#x129;" horiz-adv-x="129" 
d="M48 332h34v-289q0 -19 16 -19q5 0 14 3l6 -24q-21 -7 -34 -7q-17 0 -26.5 8.5t-9.5 38.5v289zM160 448q0 -33 -10.5 -49.5t-36.5 -16.5q-9 0 -23 5t-28 11.5t-27 11.5t-19 5q-8 0 -10.5 -9.5t-2.5 -23.5h-35q0 30 10.5 49.5t36.5 19.5q10 0 23.5 -5t27 -11.5t26 -11.5
t19.5 -5q9 0 11 8t3 22h35z" />
    <glyph glyph-name="Imacron" unicode="&#x12a;" horiz-adv-x="151" 
d="M58 0v467h35v-467h-35zM-12 539v30h174v-30h-174z" />
    <glyph glyph-name="imacron" unicode="&#x12b;" horiz-adv-x="129" 
d="M48 332h34v-289q0 -19 16 -19q5 0 14 3l6 -24q-21 -7 -34 -7q-17 0 -26.5 8.5t-9.5 38.5v289zM-23 402v30h174v-30h-174z" />
    <glyph glyph-name="Ibreve" unicode="&#x12c;" horiz-adv-x="151" 
d="M58 0v467h35v-467h-35zM75 516q-36 0 -57 19.5t-25 50.5h30q4 -21 16.5 -33t35.5 -12t35.5 12t16.5 33h30q-4 -31 -25 -50.5t-57 -19.5z" />
    <glyph glyph-name="ibreve" unicode="&#x12d;" horiz-adv-x="129" 
d="M48 332h34v-289q0 -19 16 -19q5 0 14 3l6 -24q-21 -7 -34 -7q-17 0 -26.5 8.5t-9.5 38.5v289zM64 379q-36 0 -57 19.5t-25 50.5h30q4 -21 16.5 -33t35.5 -12t35.5 12t16.5 33h30q-4 -31 -25 -50.5t-57 -19.5z" />
    <glyph glyph-name="Iogonek" unicode="&#x12e;" horiz-adv-x="151" 
d="M93 0q-22 -12 -29 -26.5t-7 -30.5q0 -15 10 -24.5t31 -9.5q4 0 12 0.5t19 4.5l-9 -28q-5 -2 -15 -3.5t-15 -1.5q-35 0 -50 17.5t-15 45.5q0 18 9.5 32.5t23.5 23.5v467h35v-467z" />
    <glyph glyph-name="iogonek" unicode="&#x12f;" horiz-adv-x="129" 
d="M48 332h34v-289q0 -19 16 -19q5 0 14 3l6 -24l-9 -3q-22 -10 -32.5 -25.5t-10.5 -31.5q0 -15 10 -24.5t31 -9.5q4 0 12 0.5t19 4.5l-9 -28q-5 -2 -15 -3.5t-15 -1.5q-35 0 -50 17.5t-15 45.5q0 18 9 32t22 23q-8 4 -12.5 14t-4.5 30v289zM91 439q0 -11 -7.5 -18t-18.5 -7
q-10 0 -17 7t-7 18t7 18t17 7q11 0 18.5 -7t7.5 -18z" />
    <glyph glyph-name="Idotaccent" unicode="&#x130;" horiz-adv-x="151" 
d="M58 0v467h35v-467h-35zM101 556q0 -11 -7.5 -18t-18.5 -7q-10 0 -17 7t-7 18t7 18t17 7q11 0 18.5 -7t7.5 -18z" />
    <glyph glyph-name="dotlessi" unicode="&#x131;" horiz-adv-x="129" 
d="M48 332h34v-289q0 -19 16 -19q5 0 14 3l6 -24q-21 -7 -34 -7q-17 0 -26.5 8.5t-9.5 38.5v289z" />
    <glyph glyph-name="Jcircumflex" unicode="&#x134;" horiz-adv-x="208" 
d="M154 111q0 -41 -5.5 -64t-16 -35t-26 -15t-36.5 -3q-11 0 -27.5 2t-26.5 4l-6 31q16 -5 32 -7t28 -2t21 2t15.5 9.5t9.5 23.5t3 44v335h-85l10 31h110v-356zM148 520l-44 46l-44 -46h-41l60 65h50l60 -65h-41z" />
    <glyph glyph-name="jcircumflex" unicode="&#x135;" horiz-adv-x="117" 
d="M69 -61q0 -38 -16.5 -57.5t-56.5 -19.5q-19 0 -31 3.5t-21 8.5l7 29q5 -3 15.5 -7t26.5 -4q20 0 31 7.5t11 39.5v393h34v-393zM95 383l-44 46l-44 -46h-41l60 65h50l60 -65h-41z" />
    <glyph glyph-name="uni0136" unicode="&#x136;" horiz-adv-x="373" 
d="M326 0l-140 265l-95 -124v-141h-35v467h35v-278l211 278h41l-134 -173l155 -294h-38zM222 -76q0 -23 -17.5 -43.5t-36.5 -31.5l-9 20q6 3 17.5 14t11.5 19q0 7 -9 13.5t-9 19.5q0 8 7 15t18 7t19 -9t8 -24z" />
    <glyph glyph-name="uni0137" unicode="&#x137;" horiz-adv-x="302" 
d="M263 0l-109 169l-71 -77v-92h-34v467h34v-331l175 196h38l-120 -136l124 -196h-37zM187 -76q0 -23 -17.5 -43.5t-36.5 -31.5l-9 20q6 3 17.5 14t11.5 19q0 7 -9 13.5t-9 19.5q0 8 7 15t18 7t19 -9t8 -24z" />
    <glyph glyph-name="kgreenlandic" unicode="&#x138;" horiz-adv-x="302" 
d="M83 336v-200l175 196h38l-120 -136l124 -196h-37l-109 169l-71 -77v-92h-34v336h34z" />
    <glyph glyph-name="Lacute" unicode="&#x139;" horiz-adv-x="311" 
d="M284 0h-228v467h35v-436h198zM152 520h-41l66 65h54z" />
    <glyph glyph-name="lacute" unicode="&#x13a;" horiz-adv-x="131" 
d="M51 467h34v-424q0 -19 16 -19q5 0 14 3l6 -24q-21 -7 -34 -7q-17 0 -26.5 8.5t-9.5 38.5v424zM67 520h-41l66 65h54z" />
    <glyph glyph-name="uni013B" unicode="&#x13b;" horiz-adv-x="311" 
d="M284 0h-228v467h35v-436h198zM201 -76q0 -23 -17.5 -43.5t-36.5 -31.5l-9 20q6 3 17.5 14t11.5 19q0 7 -9 13.5t-9 19.5q0 8 7 15t18 7t19 -9t8 -24z" />
    <glyph glyph-name="uni013C" unicode="&#x13c;" horiz-adv-x="131" 
d="M51 467h34v-424q0 -19 16 -19q5 0 14 3l6 -24q-21 -7 -34 -7q-17 0 -26.5 8.5t-9.5 38.5v424zM106 -76q0 -23 -17.5 -43.5t-36.5 -31.5l-9 20q6 3 17.5 14t11.5 19q0 7 -9 13.5t-9 19.5q0 8 7 15t18 7t19 -9t8 -24z" />
    <glyph glyph-name="Lcaron" unicode="&#x13d;" horiz-adv-x="311" 
d="M284 0h-228v467h35v-436h198zM227 444q0 -23 -17.5 -43.5t-36.5 -31.5l-9 20q6 3 17.5 14t11.5 19q0 7 -9 13.5t-9 19.5q0 8 7 15t18 7t19 -9t8 -24z" />
    <glyph glyph-name="lcaron" unicode="&#x13e;" horiz-adv-x="131" 
d="M51 467h34v-424q0 -19 16 -19q5 0 14 3l6 -24q-21 -7 -34 -7q-17 0 -26.5 8.5t-9.5 38.5v424zM188 444q0 -23 -17.5 -43.5t-36.5 -31.5l-9 20q6 3 17.5 14t11.5 19q0 7 -9 13.5t-9 19.5q0 8 7 15t18 7t19 -9t8 -24z" />
    <glyph glyph-name="Ldot" unicode="&#x13f;" horiz-adv-x="311" 
d="M284 0h-228v467h35v-436h198zM254 233q0 -11 -7.5 -18t-18.5 -7q-10 0 -17 7t-7 18t7 18t17 7q11 0 18.5 -7t7.5 -18z" />
    <glyph glyph-name="ldot" unicode="&#x140;" horiz-adv-x="184" 
d="M51 467h34v-424q0 -19 16 -19q5 0 14 3l6 -24q-21 -7 -34 -7q-17 0 -26.5 8.5t-9.5 38.5v424zM185 233q0 -11 -7.5 -18t-18.5 -7q-10 0 -17 7t-7 18t7 18t17 7q11 0 18.5 -7t7.5 -18z" />
    <glyph glyph-name="Lslash" unicode="&#x141;" horiz-adv-x="324" 
d="M297 0h-228v226l-55 -50v44l55 50v197h35v-165l87 79v-44l-87 -79v-227h198z" />
    <glyph glyph-name="lslash" unicode="&#x142;" horiz-adv-x="158" 
d="M101 254v-211q0 -19 15 -19q5 0 14 3l7 -24q-13 -5 -21 -6t-13 -1q-7 0 -13.5 1t-11.5 6t-8 15t-3 27v176l-47 -45v44l47 45v202h34v-170l45 44v-44z" />
    <glyph glyph-name="Nacute" unicode="&#x143;" horiz-adv-x="435" 
d="M349 0l-258 395v-395h-35v467h30l258 -394v394h35v-467h-30zM209 520h-41l66 65h54z" />
    <glyph glyph-name="nacute" unicode="&#x144;" horiz-adv-x="352" 
d="M83 280q8 7 22 17t32 19t38.5 15.5t41.5 6.5q26 0 43.5 -6t28 -19.5t14.5 -35t4 -53.5v-181q0 -19 16 -19q5 0 14 3l6 -24q-21 -7 -34 -7q-6 0 -12.5 1t-11.5 5.5t-8.5 14t-3.5 25.5v180q0 42 -10.5 62.5t-50.5 20.5q-21 0 -42 -7.5t-39 -18t-31 -20.5t-17 -15v-244h-34
v332h34v-52zM177 383h-41l66 65h54z" />
    <glyph glyph-name="uni0145" unicode="&#x145;" horiz-adv-x="435" 
d="M349 0l-258 395v-395h-35v467h30l258 -394v394h35v-467h-30zM250 -76q0 -23 -17.5 -43.5t-36.5 -31.5l-9 20q6 3 17.5 14t11.5 19q0 7 -9 13.5t-9 19.5q0 8 7 15t18 7t19 -9t8 -24z" />
    <glyph glyph-name="uni0146" unicode="&#x146;" horiz-adv-x="352" 
d="M83 280q8 7 22 17t32 19t38.5 15.5t41.5 6.5q26 0 43.5 -6t28 -19.5t14.5 -35t4 -53.5v-181q0 -19 16 -19q5 0 14 3l6 -24q-21 -7 -34 -7q-6 0 -12.5 1t-11.5 5.5t-8.5 14t-3.5 25.5v180q0 42 -10.5 62.5t-50.5 20.5q-21 0 -42 -7.5t-39 -18t-31 -20.5t-17 -15v-244h-34
v332h34v-52zM219 -76q0 -23 -17.5 -43.5t-36.5 -31.5l-9 20q6 3 17.5 14t11.5 19q0 7 -9 13.5t-9 19.5q0 8 7 15t18 7t19 -9t8 -24z" />
    <glyph glyph-name="Ncaron" unicode="&#x147;" horiz-adv-x="435" 
d="M349 0l-258 395v-395h-35v467h30l258 -394v394h35v-467h-30zM174 585l44 -46l44 46h41l-60 -65h-50l-60 65h41z" />
    <glyph glyph-name="ncaron" unicode="&#x148;" horiz-adv-x="352" 
d="M83 280q8 7 22 17t32 19t38.5 15.5t41.5 6.5q26 0 43.5 -6t28 -19.5t14.5 -35t4 -53.5v-181q0 -19 16 -19q5 0 14 3l6 -24q-21 -7 -34 -7q-6 0 -12.5 1t-11.5 5.5t-8.5 14t-3.5 25.5v180q0 42 -10.5 62.5t-50.5 20.5q-21 0 -42 -7.5t-39 -18t-31 -20.5t-17 -15v-244h-34
v332h34v-52zM142 448l44 -46l44 46h41l-60 -65h-50l-60 65h41z" />
    <glyph glyph-name="Eng" unicode="&#x14a;" horiz-adv-x="435" 
d="M379 467v-488q0 -41 -5.5 -64t-16 -35t-26 -15t-36.5 -3q-11 0 -27.5 2t-26.5 4l-6 31q16 -5 32 -7t28 -2t21 2t15.5 9.5t9.5 23.5t3 44v38l-253 388v-395h-35v467h30l258 -394v394h35z" />
    <glyph glyph-name="eng" unicode="&#x14b;" horiz-adv-x="352" 
d="M83 280q8 7 22 17t32 19t38.5 15.5t41.5 6.5q26 0 43.5 -6t28 -19.5t14.5 -35t4 -53.5v-285q0 -38 -16.5 -57.5t-56.5 -19.5q-19 0 -31 3.5t-21 8.5l7 29q5 -3 15.5 -7t26.5 -4q20 0 31 7.5t11 39.5v283q0 42 -10.5 62.5t-50.5 20.5q-21 0 -42 -7.5t-39 -18t-31 -20.5
t-17 -15v-244h-34v332h34v-52z" />
    <glyph glyph-name="Omacron" unicode="&#x14c;" horiz-adv-x="461" 
d="M418 233q0 -69 -16.5 -115t-43 -74t-60 -39.5t-67.5 -11.5t-67.5 11.5t-60.5 39.5t-43.5 74t-16.5 115q0 70 16.5 116.5t43.5 74.5t60.5 39.5t67.5 11.5t67.5 -11.5t60 -39.5t43 -74.5t16.5 -116.5zM382 233q0 64 -14.5 105t-36.5 64.5t-48.5 32.5t-51.5 9t-51.5 -9
t-48.5 -32.5t-36.5 -64.5t-14.5 -105t14.5 -104.5t36.5 -64t48.5 -32t51.5 -8.5t51.5 8.5t48.5 32t36.5 64t14.5 104.5zM144 539v30h174v-30h-174z" />
    <glyph glyph-name="omacron" unicode="&#x14d;" horiz-adv-x="379" 
d="M340 165q0 -51 -13 -84t-34 -52t-48 -26.5t-56 -7.5t-56 7.5t-48 26.5t-33.5 52t-12.5 84t12.5 84.5t33.5 53t48 27.5t56 8t56 -8t48 -27.5t34 -53t13 -84.5zM304 165q0 44 -10 72t-26 43.5t-37 21t-42 5.5t-41.5 -5.5t-36.5 -21t-26 -43.5t-10 -72t10 -71t26 -42
t36.5 -20t41.5 -5t42 5t37 20t26 42t10 71zM103 402v30h174v-30h-174z" />
    <glyph glyph-name="Obreve" unicode="&#x14e;" horiz-adv-x="461" 
d="M418 233q0 -69 -16.5 -115t-43 -74t-60 -39.5t-67.5 -11.5t-67.5 11.5t-60.5 39.5t-43.5 74t-16.5 115q0 70 16.5 116.5t43.5 74.5t60.5 39.5t67.5 11.5t67.5 -11.5t60 -39.5t43 -74.5t16.5 -116.5zM382 233q0 64 -14.5 105t-36.5 64.5t-48.5 32.5t-51.5 9t-51.5 -9
t-48.5 -32.5t-36.5 -64.5t-14.5 -105t14.5 -104.5t36.5 -64t48.5 -32t51.5 -8.5t51.5 8.5t48.5 32t36.5 64t14.5 104.5zM231 516q-36 0 -57 19.5t-25 50.5h30q4 -21 16.5 -33t35.5 -12t35.5 12t16.5 33h30q-4 -31 -25 -50.5t-57 -19.5z" />
    <glyph glyph-name="obreve" unicode="&#x14f;" horiz-adv-x="379" 
d="M340 165q0 -51 -13 -84t-34 -52t-48 -26.5t-56 -7.5t-56 7.5t-48 26.5t-33.5 52t-12.5 84t12.5 84.5t33.5 53t48 27.5t56 8t56 -8t48 -27.5t34 -53t13 -84.5zM304 165q0 44 -10 72t-26 43.5t-37 21t-42 5.5t-41.5 -5.5t-36.5 -21t-26 -43.5t-10 -72t10 -71t26 -42
t36.5 -20t41.5 -5t42 5t37 20t26 42t10 71zM190 379q-36 0 -57 19.5t-25 50.5h30q4 -21 16.5 -33t35.5 -12t35.5 12t16.5 33h30q-4 -31 -25 -50.5t-57 -19.5z" />
    <glyph glyph-name="Ohungarumlaut" unicode="&#x150;" horiz-adv-x="461" 
d="M418 233q0 -69 -16.5 -115t-43 -74t-60 -39.5t-67.5 -11.5t-67.5 11.5t-60.5 39.5t-43.5 74t-16.5 115q0 70 16.5 116.5t43.5 74.5t60.5 39.5t67.5 11.5t67.5 -11.5t60 -39.5t43 -74.5t16.5 -116.5zM382 233q0 64 -14.5 105t-36.5 64.5t-48.5 32.5t-51.5 9t-51.5 -9
t-48.5 -32.5t-36.5 -64.5t-14.5 -105t14.5 -104.5t36.5 -64t48.5 -32t51.5 -8.5t51.5 8.5t48.5 32t36.5 64t14.5 104.5zM274 520h-41l66 65h54zM169 520h-41l66 65h54z" />
    <glyph glyph-name="ohungarumlaut" unicode="&#x151;" horiz-adv-x="379" 
d="M340 165q0 -51 -13 -84t-34 -52t-48 -26.5t-56 -7.5t-56 7.5t-48 26.5t-33.5 52t-12.5 84t12.5 84.5t33.5 53t48 27.5t56 8t56 -8t48 -27.5t34 -53t13 -84.5zM304 165q0 44 -10 72t-26 43.5t-37 21t-42 5.5t-41.5 -5.5t-36.5 -21t-26 -43.5t-10 -72t10 -71t26 -42
t36.5 -20t41.5 -5t42 5t37 20t26 42t10 71zM233 383h-41l66 65h54zM128 383h-41l66 65h54z" />
    <glyph glyph-name="OE" unicode="&#x152;" horiz-adv-x="671" 
d="M633 0h-251v78q-26 -47 -67 -66t-84 -19q-34 0 -67.5 11.5t-60.5 39.5t-43.5 74t-16.5 115q0 70 16.5 116.5t43.5 74.5t60.5 39.5t67.5 11.5q43 0 84 -19t67 -67v78h256l-5 -31h-216v-188h195l-5 -30h-190v-187h221zM382 233q0 64 -14.5 105t-36.5 64.5t-48.5 32.5
t-51.5 9t-51.5 -9t-48.5 -32.5t-36.5 -64.5t-14.5 -105t14.5 -104.5t36.5 -64t48.5 -32t51.5 -8.5t52 8.5t49 32t36 64t14 104.5z" />
    <glyph glyph-name="oe" unicode="&#x153;" horiz-adv-x="627" 
d="M591 192q0 -16 -1 -24.5t-1 -10.5h-249q0 -48 13 -74.5t32.5 -39t42 -14.5t41.5 -2q13 0 28 1t30.5 4t29.5 7.5t25 10.5l-7 -35q-21 -11 -51.5 -15.5t-56.5 -4.5q-60 0 -94.5 19.5t-51.5 54.5q-20 -43 -57 -58.5t-75 -15.5q-29 0 -56 7.5t-48 26.5t-33.5 52t-12.5 84
t12.5 84.5t33.5 53t48 27.5t56 8q41 0 77.5 -17.5t56.5 -62.5q15 33 45 56.5t83 23.5q36 0 62.5 -11t44 -30.5t25.5 -46.5t8 -58zM557 185q4 64 -26.5 93t-79.5 29q-33 0 -54.5 -12.5t-34 -31.5t-17.5 -40t-5 -38h217zM304 165q0 44 -10 72t-26 43.5t-37 21t-42 5.5
t-41.5 -5.5t-36.5 -21t-26 -43.5t-10 -72t10 -71t26 -42t36.5 -20t41.5 -5t42 5t37 20t26 42t10 71z" />
    <glyph glyph-name="Racute" unicode="&#x154;" horiz-adv-x="391" 
d="M324 0l-98 192q-5 -1 -16 -1h-119v-191h-35v467h154q69 0 103 -37t34 -101q0 -51 -21 -84.5t-65 -46.5l102 -198h-39zM311 329q0 36 -10.5 57t-26 32.5t-32.5 14.5t-30 3h-121v-214h121q13 0 30 3t32.5 14t26 32.5t10.5 57.5zM167 520h-41l66 65h54z" />
    <glyph glyph-name="racute" unicode="&#x155;" horiz-adv-x="240" 
d="M219 290q-10 6 -23.5 10.5t-31.5 4.5q-14 0 -27 -6.5t-24 -16t-19 -19.5t-11 -16v-247h-34v332h34v-46q13 20 34.5 36t50.5 16q18 0 33 -5.5t25 -11.5zM121 383h-41l66 65h54z" />
    <glyph glyph-name="uni0156" unicode="&#x156;" horiz-adv-x="391" 
d="M324 0l-98 192q-5 -1 -16 -1h-119v-191h-35v467h154q69 0 103 -37t34 -101q0 -51 -21 -84.5t-65 -46.5l102 -198h-39zM311 329q0 36 -10.5 57t-26 32.5t-32.5 14.5t-30 3h-121v-214h121q13 0 30 3t32.5 14t26 32.5t10.5 57.5zM228 -76q0 -23 -17.5 -43.5t-36.5 -31.5
l-9 20q6 3 17.5 14t11.5 19q0 7 -9 13.5t-9 19.5q0 8 7 15t18 7t19 -9t8 -24z" />
    <glyph glyph-name="uni0157" unicode="&#x157;" horiz-adv-x="240" 
d="M219 290q-10 6 -23.5 10.5t-31.5 4.5q-14 0 -27 -6.5t-24 -16t-19 -19.5t-11 -16v-247h-34v332h34v-46q13 20 34.5 36t50.5 16q18 0 33 -5.5t25 -11.5zM96 -76q0 -23 -17.5 -43.5t-36.5 -31.5l-9 20q6 3 17.5 14t11.5 19q0 7 -9 13.5t-9 19.5q0 8 7 15t18 7t19 -9t8 -24z
" />
    <glyph glyph-name="Rcaron" unicode="&#x158;" horiz-adv-x="391" 
d="M324 0l-98 192q-5 -1 -16 -1h-119v-191h-35v467h154q69 0 103 -37t34 -101q0 -51 -21 -84.5t-65 -46.5l102 -198h-39zM311 329q0 36 -10.5 57t-26 32.5t-32.5 14.5t-30 3h-121v-214h121q13 0 30 3t32.5 14t26 32.5t10.5 57.5zM142 585l44 -46l44 46h41l-60 -65h-50
l-60 65h41z" />
    <glyph glyph-name="rcaron" unicode="&#x159;" horiz-adv-x="240" 
d="M219 290q-10 6 -23.5 10.5t-31.5 4.5q-14 0 -27 -6.5t-24 -16t-19 -19.5t-11 -16v-247h-34v332h34v-46q13 20 34.5 36t50.5 16q18 0 33 -5.5t25 -11.5zM91 448l44 -46l44 46h41l-60 -65h-50l-60 65h41z" />
    <glyph glyph-name="Sacute" unicode="&#x15a;" horiz-adv-x="332" 
d="M306 120q0 -67 -42 -97t-110 -30q-41 0 -73 7t-51 18l7 35q20 -11 49 -20t68 -9q18 0 38.5 3.5t38 13t28.5 27.5t11 47t-17.5 49.5t-44.5 37t-57.5 31.5t-57.5 33t-44.5 41t-17.5 56t12 54.5t33 34.5t48.5 18t57.5 5q27 0 56 -7t52 -18l-7 -31q-24 10 -50 17.5t-54 7.5
q-21 0 -41 -3t-36 -11.5t-25.5 -24t-9.5 -41.5q0 -25 17.5 -43.5t44.5 -34.5t57.5 -31.5t57.5 -34t44.5 -43t17.5 -57.5zM157 520h-41l66 65h54z" />
    <glyph glyph-name="sacute" unicode="&#x15b;" horiz-adv-x="298" 
d="M270 94q0 -43 -33.5 -71t-96.5 -28q-39 0 -64.5 4.5t-39.5 10.5l8 35q14 -8 39 -13.5t56 -5.5q15 0 32 2.5t31.5 10t23.5 21t9 34.5q0 18 -14 30.5t-35 22t-45.5 18t-45.5 20t-35 27t-14 38.5q0 25 9.5 41.5t26 27t37.5 15t45 4.5q30 0 52 -4.5t41 -12.5l-7 -32
q-17 8 -40 13t-49 5q-42 0 -61 -14t-19 -40q0 -17 14 -28.5t35 -21t45.5 -18t45.5 -20.5t35 -29t14 -42zM150 383h-41l66 65h54z" />
    <glyph glyph-name="Scircumflex" unicode="&#x15c;" horiz-adv-x="332" 
d="M306 120q0 -67 -42 -97t-110 -30q-41 0 -73 7t-51 18l7 35q20 -11 49 -20t68 -9q18 0 38.5 3.5t38 13t28.5 27.5t11 47t-17.5 49.5t-44.5 37t-57.5 31.5t-57.5 33t-44.5 41t-17.5 56t12 54.5t33 34.5t48.5 18t57.5 5q27 0 56 -7t52 -18l-7 -31q-24 10 -50 17.5t-54 7.5
q-21 0 -41 -3t-36 -11.5t-25.5 -24t-9.5 -41.5q0 -25 17.5 -43.5t44.5 -34.5t57.5 -31.5t57.5 -34t44.5 -43t17.5 -57.5zM212 520l-44 46l-44 -46h-41l60 65h50l60 -65h-41z" />
    <glyph glyph-name="scircumflex" unicode="&#x15d;" horiz-adv-x="298" 
d="M270 94q0 -43 -33.5 -71t-96.5 -28q-39 0 -64.5 4.5t-39.5 10.5l8 35q14 -8 39 -13.5t56 -5.5q15 0 32 2.5t31.5 10t23.5 21t9 34.5q0 18 -14 30.5t-35 22t-45.5 18t-45.5 20t-35 27t-14 38.5q0 25 9.5 41.5t26 27t37.5 15t45 4.5q30 0 52 -4.5t41 -12.5l-7 -32
q-17 8 -40 13t-49 5q-42 0 -61 -14t-19 -40q0 -17 14 -28.5t35 -21t45.5 -18t45.5 -20.5t35 -29t14 -42zM198 383l-44 46l-44 -46h-41l60 65h50l60 -65h-41z" />
    <glyph glyph-name="Scedilla" unicode="&#x15e;" horiz-adv-x="332" 
d="M306 120q0 -67 -42 -97t-110 -30q-41 0 -73 7t-51 18l7 35q20 -11 49 -20t68 -9q18 0 38.5 3.5t38 13t28.5 27.5t11 47t-17.5 49.5t-44.5 37t-57.5 31.5t-57.5 33t-44.5 41t-17.5 56t12 54.5t33 34.5t48.5 18t57.5 5q27 0 56 -7t52 -18l-7 -31q-24 10 -50 17.5t-54 7.5
q-21 0 -41 -3t-36 -11.5t-25.5 -24t-9.5 -41.5q0 -25 17.5 -43.5t44.5 -34.5t57.5 -31.5t57.5 -34t44.5 -43t17.5 -57.5zM150 -130h-40l50 87h51z" />
    <glyph glyph-name="scedilla" unicode="&#x15f;" horiz-adv-x="298" 
d="M270 94q0 -43 -33.5 -71t-96.5 -28q-39 0 -64.5 4.5t-39.5 10.5l8 35q14 -8 39 -13.5t56 -5.5q15 0 32 2.5t31.5 10t23.5 21t9 34.5q0 18 -14 30.5t-35 22t-45.5 18t-45.5 20t-35 27t-14 38.5q0 25 9.5 41.5t26 27t37.5 15t45 4.5q30 0 52 -4.5t41 -12.5l-7 -32
q-17 8 -40 13t-49 5q-42 0 -61 -14t-19 -40q0 -17 14 -28.5t35 -21t45.5 -18t45.5 -20.5t35 -29t14 -42zM124 -130h-40l50 87h51z" />
    <glyph glyph-name="Scaron" unicode="&#x160;" horiz-adv-x="332" 
d="M306 120q0 -67 -42 -97t-110 -30q-41 0 -73 7t-51 18l7 35q20 -11 49 -20t68 -9q18 0 38.5 3.5t38 13t28.5 27.5t11 47t-17.5 49.5t-44.5 37t-57.5 31.5t-57.5 33t-44.5 41t-17.5 56t12 54.5t33 34.5t48.5 18t57.5 5q27 0 56 -7t52 -18l-7 -31q-24 10 -50 17.5t-54 7.5
q-21 0 -41 -3t-36 -11.5t-25.5 -24t-9.5 -41.5q0 -25 17.5 -43.5t44.5 -34.5t57.5 -31.5t57.5 -34t44.5 -43t17.5 -57.5zM122 585l44 -46l44 46h41l-60 -65h-50l-60 65h41z" />
    <glyph glyph-name="scaron" unicode="&#x161;" horiz-adv-x="298" 
d="M270 94q0 -43 -33.5 -71t-96.5 -28q-39 0 -64.5 4.5t-39.5 10.5l8 35q14 -8 39 -13.5t56 -5.5q15 0 32 2.5t31.5 10t23.5 21t9 34.5q0 18 -14 30.5t-35 22t-45.5 18t-45.5 20t-35 27t-14 38.5q0 25 9.5 41.5t26 27t37.5 15t45 4.5q30 0 52 -4.5t41 -12.5l-7 -32
q-17 8 -40 13t-49 5q-42 0 -61 -14t-19 -40q0 -17 14 -28.5t35 -21t45.5 -18t45.5 -20.5t35 -29t14 -42zM105 448l44 -46l44 46h41l-60 -65h-50l-60 65h41z" />
    <glyph glyph-name="uni0162" unicode="&#x162;" horiz-adv-x="341" 
d="M312 436h-122v-436h-35v436h-123v31h285zM200 -76q0 -23 -17.5 -43.5t-36.5 -31.5l-9 20q6 3 17.5 14t11.5 19q0 7 -9 13.5t-9 19.5q0 8 7 15t18 7t19 -9t8 -24z" />
    <glyph glyph-name="uni0163" unicode="&#x163;" horiz-adv-x="201" 
d="M175 304h-76v-231q0 -29 8.5 -38t27.5 -9q11 0 20 2.5t19 9.5l9 -30q-20 -13 -49 -13q-35 0 -52 16t-17 61v232h-51l6 28h45v101l34 9v-110h76v-28zM137 -76q0 -23 -17.5 -43.5t-36.5 -31.5l-9 20q6 3 17.5 14t11.5 19q0 7 -9 13.5t-9 19.5q0 8 7 15t18 7t19 -9t8 -24z
" />
    <glyph glyph-name="Tcaron" unicode="&#x164;" horiz-adv-x="341" 
d="M312 436h-122v-436h-35v436h-123v31h285zM127 585l44 -46l44 46h41l-60 -65h-50l-60 65h41z" />
    <glyph glyph-name="tcaron" unicode="&#x165;" horiz-adv-x="201" 
d="M175 304h-76v-231q0 -29 8.5 -38t27.5 -9q11 0 20 2.5t19 9.5l9 -30q-20 -13 -49 -13q-35 0 -52 16t-17 61v232h-51l6 28h45v101l34 9v-110h76v-28zM202 444q0 -23 -17.5 -43.5t-36.5 -31.5l-9 20q6 3 17.5 14t11.5 19q0 7 -9 13.5t-9 19.5q0 8 7 15t18 7t19 -9t8 -24z
" />
    <glyph glyph-name="Tbar" unicode="&#x166;" horiz-adv-x="341" 
d="M312 436h-122v-178h122v-30h-122v-228h-35v228h-118v30h118v178h-123v31h285z" />
    <glyph glyph-name="tbar" unicode="&#x167;" horiz-adv-x="201" 
d="M175 304h-76v-115h76v-28h-76v-88q0 -29 8.5 -38t27.5 -9q11 0 20 2.5t19 9.5l9 -30q-20 -13 -49 -13q-35 0 -52 16t-17 61v89h-46v28h46v115h-51l6 28h45v101l34 9v-110h76v-28z" />
    <glyph glyph-name="Utilde" unicode="&#x168;" horiz-adv-x="429" 
d="M376 155q0 -23 -4 -51t-20.5 -53t-48.5 -41.5t-88 -16.5t-88 16.5t-48.5 41.5t-21 53t-4.5 51v312h35v-312q0 -26 5.5 -49.5t19.5 -41.5t38.5 -29t63.5 -11t63.5 11t38.5 29t19 41.5t5 49.5v312h35v-312zM311 585q0 -33 -10.5 -49.5t-36.5 -16.5q-9 0 -23 5t-28 11.5
t-27 11.5t-19 5q-8 0 -10.5 -9.5t-2.5 -23.5h-35q0 30 10.5 49.5t36.5 19.5q10 0 23.5 -5t27 -11.5t26 -11.5t19.5 -5q9 0 11 8t3 22h35z" />
    <glyph glyph-name="utilde" unicode="&#x169;" horiz-adv-x="353" 
d="M273 52q-8 -8 -22.5 -17.5t-32.5 -18.5t-38.5 -15t-40.5 -6q-45 0 -67.5 23.5t-22.5 88.5v225h34v-221q0 -42 10.5 -62.5t50.5 -20.5q21 0 42 7.5t39 18t31 20t17 14.5v244h35v-289q0 -19 16 -19q5 0 14 3l6 -24q-21 -7 -34 -7q-6 0 -12.5 1t-12 5.5t-9 14t-3.5 25.5v10z
M277 448q0 -33 -10.5 -49.5t-36.5 -16.5q-9 0 -23 5t-28 11.5t-27 11.5t-19 5q-8 0 -10.5 -9.5t-2.5 -23.5h-35q0 30 10.5 49.5t36.5 19.5q10 0 23.5 -5t27 -11.5t26 -11.5t19.5 -5q9 0 11 8t3 22h35z" />
    <glyph glyph-name="Umacron" unicode="&#x16a;" horiz-adv-x="429" 
d="M376 155q0 -23 -4 -51t-20.5 -53t-48.5 -41.5t-88 -16.5t-88 16.5t-48.5 41.5t-21 53t-4.5 51v312h35v-312q0 -26 5.5 -49.5t19.5 -41.5t38.5 -29t63.5 -11t63.5 11t38.5 29t19 41.5t5 49.5v312h35v-312zM128 539v30h174v-30h-174z" />
    <glyph glyph-name="umacron" unicode="&#x16b;" horiz-adv-x="353" 
d="M273 52q-8 -8 -22.5 -17.5t-32.5 -18.5t-38.5 -15t-40.5 -6q-45 0 -67.5 23.5t-22.5 88.5v225h34v-221q0 -42 10.5 -62.5t50.5 -20.5q21 0 42 7.5t39 18t31 20t17 14.5v244h35v-289q0 -19 16 -19q5 0 14 3l6 -24q-21 -7 -34 -7q-6 0 -12.5 1t-12 5.5t-9 14t-3.5 25.5v10z
M90 402v30h174v-30h-174z" />
    <glyph glyph-name="Ubreve" unicode="&#x16c;" horiz-adv-x="429" 
d="M376 155q0 -23 -4 -51t-20.5 -53t-48.5 -41.5t-88 -16.5t-88 16.5t-48.5 41.5t-21 53t-4.5 51v312h35v-312q0 -26 5.5 -49.5t19.5 -41.5t38.5 -29t63.5 -11t63.5 11t38.5 29t19 41.5t5 49.5v312h35v-312zM215 516q-36 0 -57 19.5t-25 50.5h30q4 -21 16.5 -33t35.5 -12
t35.5 12t16.5 33h30q-4 -31 -25 -50.5t-57 -19.5z" />
    <glyph glyph-name="ubreve" unicode="&#x16d;" horiz-adv-x="353" 
d="M273 52q-8 -8 -22.5 -17.5t-32.5 -18.5t-38.5 -15t-40.5 -6q-45 0 -67.5 23.5t-22.5 88.5v225h34v-221q0 -42 10.5 -62.5t50.5 -20.5q21 0 42 7.5t39 18t31 20t17 14.5v244h35v-289q0 -19 16 -19q5 0 14 3l6 -24q-21 -7 -34 -7q-6 0 -12.5 1t-12 5.5t-9 14t-3.5 25.5v10z
M177 379q-36 0 -57 19.5t-25 50.5h30q4 -21 16.5 -33t35.5 -12t35.5 12t16.5 33h30q-4 -31 -25 -50.5t-57 -19.5z" />
    <glyph glyph-name="Uring" unicode="&#x16e;" horiz-adv-x="429" 
d="M376 155q0 -23 -4 -51t-20.5 -53t-48.5 -41.5t-88 -16.5t-88 16.5t-48.5 41.5t-21 53t-4.5 51v312h35v-312q0 -26 5.5 -49.5t19.5 -41.5t38.5 -29t63.5 -11t63.5 11t38.5 29t19 41.5t5 49.5v312h35v-312zM270 565q0 -23 -16 -39.5t-39 -16.5t-39.5 16.5t-16.5 39.5
t17 39.5t40 16.5t38.5 -16.5t15.5 -39.5zM246 565q0 13 -9 22t-22 9t-22.5 -9t-9.5 -22t9.5 -22t22.5 -9t22 9t9 22z" />
    <glyph glyph-name="uring" unicode="&#x16f;" horiz-adv-x="353" 
d="M273 52q-8 -8 -22.5 -17.5t-32.5 -18.5t-38.5 -15t-40.5 -6q-45 0 -67.5 23.5t-22.5 88.5v225h34v-221q0 -42 10.5 -62.5t50.5 -20.5q21 0 42 7.5t39 18t31 20t17 14.5v244h35v-289q0 -19 16 -19q5 0 14 3l6 -24q-21 -7 -34 -7q-6 0 -12.5 1t-12 5.5t-9 14t-3.5 25.5v10z
M232 428q0 -23 -16 -39.5t-39 -16.5t-39.5 16.5t-16.5 39.5t17 39.5t40 16.5t38.5 -16.5t15.5 -39.5zM208 428q0 13 -9 22t-22 9t-22.5 -9t-9.5 -22t9.5 -22t22.5 -9t22 9t9 22z" />
    <glyph glyph-name="Uhungarumlaut" unicode="&#x170;" horiz-adv-x="429" 
d="M376 155q0 -23 -4 -51t-20.5 -53t-48.5 -41.5t-88 -16.5t-88 16.5t-48.5 41.5t-21 53t-4.5 51v312h35v-312q0 -26 5.5 -49.5t19.5 -41.5t38.5 -29t63.5 -11t63.5 11t38.5 29t19 41.5t5 49.5v312h35v-312zM258 520h-41l66 65h54zM153 520h-41l66 65h54z" />
    <glyph glyph-name="uhungarumlaut" unicode="&#x171;" horiz-adv-x="353" 
d="M273 52q-8 -8 -22.5 -17.5t-32.5 -18.5t-38.5 -15t-40.5 -6q-45 0 -67.5 23.5t-22.5 88.5v225h34v-221q0 -42 10.5 -62.5t50.5 -20.5q21 0 42 7.5t39 18t31 20t17 14.5v244h35v-289q0 -19 16 -19q5 0 14 3l6 -24q-21 -7 -34 -7q-6 0 -12.5 1t-12 5.5t-9 14t-3.5 25.5v10z
M222 383h-41l66 65h54zM117 383h-41l66 65h54z" />
    <glyph glyph-name="Uogonek" unicode="&#x172;" horiz-adv-x="429" 
d="M376 155q0 -21 -3.5 -46.5t-16 -48.5t-37.5 -40.5t-68 -23.5q-17 -11 -26 -25t-9 -28q0 -15 10 -24.5t31 -9.5q4 0 12 0.5t19 4.5l-9 -28q-5 -2 -15 -3.5t-15 -1.5q-35 0 -50 17.5t-15 45.5q0 15 6.5 27.5t17.5 21.5q-54 1 -84.5 18t-46.5 41.5t-20 52t-4 50.5v312h35
v-312q0 -26 5.5 -49.5t19.5 -41.5t38.5 -29t63.5 -11t63.5 11t38.5 29t19 41.5t5 49.5v312h35v-312z" />
    <glyph glyph-name="uogonek" unicode="&#x173;" horiz-adv-x="353" 
d="M289 0q-7 4 -11.5 13.5t-4.5 28.5v10q-8 -8 -22.5 -17.5t-32.5 -18.5t-38.5 -15t-40.5 -6q-45 0 -67.5 23.5t-22.5 88.5v225h34v-221q0 -42 10.5 -62.5t50.5 -20.5q21 0 42 7.5t39 18t31 20t17 14.5v244h35v-289q0 -19 16 -19q5 0 14 3l6 -24l-13 -4q-22 -10 -32.5 -25
t-10.5 -31q0 -15 10 -24.5t31 -9.5q4 0 12 0.5t19 4.5l-9 -28q-5 -2 -15 -3.5t-15 -1.5q-35 0 -50 17.5t-15 45.5q0 18 9.5 32.5t23.5 23.5z" />
    <glyph glyph-name="Wcircumflex" unicode="&#x174;" horiz-adv-x="581" 
d="M431 0h-38l-102 414l-103 -414h-37l-129 467h36l112 -415l102 415h38l102 -415l111 415h36zM335 520l-44 46l-44 -46h-41l60 65h50l60 -65h-41z" />
    <glyph glyph-name="wcircumflex" unicode="&#x175;" horiz-adv-x="442" 
d="M334 0h-33l-79 292l-79 -292h-34l-95 332h33l79 -290l78 290h35l77 -290l79 290h33zM265 383l-44 46l-44 -46h-41l60 65h50l60 -65h-41z" />
    <glyph glyph-name="Ycircumflex" unicode="&#x176;" horiz-adv-x="378" 
d="M207 201v-201h-35v201l-162 266h38l141 -235l142 235h37zM233 520l-44 46l-44 -46h-41l60 65h50l60 -65h-41z" />
    <glyph glyph-name="ycircumflex" unicode="&#x177;" horiz-adv-x="297" 
d="M153 -35q-18 -50 -39.5 -76.5t-65.5 -26.5q-17 0 -30 3.5t-21 8.5l7 30q9 -5 19 -9t27 -4q14 0 24.5 5.5t19.5 17.5t17.5 31t18.5 47l6 17l-132 323h36l112 -280l99 280h36zM193 383l-44 46l-44 -46h-41l60 65h50l60 -65h-41z" />
    <glyph glyph-name="Ydieresis" unicode="&#x178;" horiz-adv-x="378" 
d="M207 201v-201h-35v201l-162 266h38l141 -235l142 235h37zM274 556q0 -11 -7.5 -18t-17.5 -7q-11 0 -18 7t-7 18t7 18t18 7q10 0 17.5 -7t7.5 -18zM153 556q0 -11 -7.5 -18t-18.5 -7q-10 0 -17 7t-7 18t7 18t17 7q11 0 18.5 -7t7.5 -18z" />
    <glyph glyph-name="Zacute" unicode="&#x179;" horiz-adv-x="370" 
d="M33 0v20l245 416h-231l5 31h272v-20l-246 -416h251v-31h-296zM176 520h-41l66 65h54z" />
    <glyph glyph-name="zacute" unicode="&#x17a;" horiz-adv-x="280" 
d="M36 0v17l173 287h-171l6 28h215v-17l-178 -287h181v-28h-226zM141 383h-41l66 65h54z" />
    <glyph glyph-name="Zdotaccent" unicode="&#x17b;" horiz-adv-x="370" 
d="M33 0v20l245 416h-231l5 31h272v-20l-246 -416h251v-31h-296zM213 556q0 -11 -7.5 -18t-18.5 -7q-10 0 -17 7t-7 18t7 18t17 7q11 0 18.5 -7t7.5 -18z" />
    <glyph glyph-name="zdotaccent" unicode="&#x17c;" horiz-adv-x="280" 
d="M36 0v17l173 287h-171l6 28h215v-17l-178 -287h181v-28h-226zM175 419q0 -11 -7.5 -18t-18.5 -7q-10 0 -17 7t-7 18t7 18t17 7q11 0 18.5 -7t7.5 -18z" />
    <glyph glyph-name="Zcaron" unicode="&#x17d;" horiz-adv-x="370" 
d="M33 0v20l245 416h-231l5 31h272v-20l-246 -416h251v-31h-296zM141 585l44 -46l44 46h41l-60 -65h-50l-60 65h41z" />
    <glyph glyph-name="zcaron" unicode="&#x17e;" horiz-adv-x="280" 
d="M36 0v17l173 287h-171l6 28h215v-17l-178 -287h181v-28h-226zM96 448l44 -46l44 46h41l-60 -65h-50l-60 65h41z" />
    <glyph glyph-name="florin" unicode="&#x192;" horiz-adv-x="249" 
d="M240 433q-11 5 -21 8.5t-27 3.5t-27.5 -5t-17 -18t-9.5 -34.5t-5 -54.5l-4 -75h62v-28h-64l-13 -211q-5 -66 -36 -106t-88 -41h-10.5t-8.5 1l5 28q42 -5 70.5 25t32.5 93l14 211h-47l5 28h44l4 70q2 46 8.5 75t17.5 45t28.5 21.5t42.5 5.5q14 0 26.5 -3.5t23.5 -8.5z" />
    <glyph glyph-name="AEacute" unicode="&#x1fc;" horiz-adv-x="581" 
d="M543 0h-251v120h-171l-65 -120h-36l253 467h275l-5 -31h-216v-188h195l-5 -30h-190v-187h221zM292 436l-154 -285h154v285zM362 520h-41l66 65h54z" />
    <glyph glyph-name="aeacute" unicode="&#x1fd;" horiz-adv-x="571" 
d="M535 192q0 -16 -1 -24.5t-1 -10.5h-249q0 -44 11 -70t29 -39.5t40 -17t43 -3.5q68 0 119 23l-7 -35q-21 -10 -51.5 -15t-56.5 -5q-59 0 -93.5 17.5t-51.5 52.5q-5 -9 -14.5 -21.5t-25 -23t-37.5 -18t-51 -7.5q-51 0 -79 25.5t-28 70.5q0 31 10.5 50t28 29.5t41.5 14
t51 3.5q18 0 41 -1l45 -2v41q0 26 -9 42t-23 24.5t-32 11.5t-37 3q-23 0 -45 -5t-48 -14l7 33q27 10 51.5 13.5t50.5 3.5q39 0 68.5 -13t42.5 -51q17 28 45.5 46t75.5 18q36 0 62.5 -11t44 -30.5t25.5 -46.5t8 -58zM501 185q4 64 -26.5 93t-79.5 29q-33 0 -54.5 -12.5
t-34 -31.5t-17.5 -40t-5 -38h217zM248 157q-23 2 -43.5 2.5t-43.5 0.5q-22 0 -39.5 -1.5t-29.5 -8t-18.5 -19.5t-6.5 -37q0 -38 21 -52.5t50 -14.5q30 0 50.5 8.5t34 22.5t19.5 31.5t6 35.5v32zM267 383h-41l66 65h54z" />
    <glyph glyph-name="Oslashacute" unicode="&#x1fe;" horiz-adv-x="461" 
d="M418 233q0 -69 -16.5 -115t-43 -74t-60 -39.5t-67.5 -11.5q-26 0 -50 6t-47 20l-26 -48h-33l35 66q-29 27 -48 74.5t-19 121.5q0 70 16.5 116.5t43.5 74.5t60.5 39.5t67.5 11.5q25 0 49 -5.5t47 -19.5l25 48h34l-35 -67q30 -27 48.5 -75t18.5 -123zM382 233
q0 62 -13.5 102t-34.5 64l-184 -351q20 -14 40.5 -19t40.5 -5q24 0 51 8.5t49 32t36.5 64t14.5 104.5zM311 420q-19 14 -39.5 19t-40.5 5q-25 0 -51.5 -9t-48.5 -32.5t-36.5 -64.5t-14.5 -105q0 -61 13 -101t34 -63zM222 520h-41l66 65h54z" />
    <glyph glyph-name="oslashacute" unicode="&#x1ff;" horiz-adv-x="379" 
d="M340 165q0 -51 -13 -84t-34 -52t-48 -26.5t-56 -7.5q-35 0 -66 11l-18 -35h-33l25 49q-26 17 -42 52t-16 93q0 51 12.5 84.5t33.5 53t48 27.5t56 8q18 0 35.5 -2.5t33.5 -10.5l16 31h33l-24 -45q26 -19 41.5 -54t15.5 -92zM304 165q0 45 -10 72.5t-26 43.5l-130 -246
q12 -5 25 -6.5t26 -1.5q21 0 42 5t37 20t26 42t10 71zM243 297q-24 10 -54 10q-21 0 -41.5 -5.5t-36.5 -21t-26 -43.5t-10 -72q0 -46 10.5 -73.5t27.5 -41.5zM181 383h-41l66 65h54z" />
    <glyph glyph-name="uni0218" unicode="&#x218;" horiz-adv-x="332" 
d="M306 120q0 -67 -42 -97t-110 -30q-41 0 -73 7t-51 18l7 35q20 -11 49 -20t68 -9q18 0 38.5 3.5t38 13t28.5 27.5t11 47t-17.5 49.5t-44.5 37t-57.5 31.5t-57.5 33t-44.5 41t-17.5 56t12 54.5t33 34.5t48.5 18t57.5 5q27 0 56 -7t52 -18l-7 -31q-24 10 -50 17.5t-54 7.5
q-21 0 -41 -3t-36 -11.5t-25.5 -24t-9.5 -41.5q0 -25 17.5 -43.5t44.5 -34.5t57.5 -31.5t57.5 -34t44.5 -43t17.5 -57.5zM195 -76q0 -23 -17.5 -43.5t-36.5 -31.5l-9 20q6 3 17.5 14t11.5 19q0 7 -9 13.5t-9 19.5q0 8 7 15t18 7t19 -9t8 -24z" />
    <glyph glyph-name="uni0219" unicode="&#x219;" horiz-adv-x="298" 
d="M270 94q0 -43 -33.5 -71t-96.5 -28q-39 0 -64.5 4.5t-39.5 10.5l8 35q14 -8 39 -13.5t56 -5.5q15 0 32 2.5t31.5 10t23.5 21t9 34.5q0 18 -14 30.5t-35 22t-45.5 18t-45.5 20t-35 27t-14 38.5q0 25 9.5 41.5t26 27t37.5 15t45 4.5q30 0 52 -4.5t41 -12.5l-7 -32
q-17 8 -40 13t-49 5q-42 0 -61 -14t-19 -40q0 -17 14 -28.5t35 -21t45.5 -18t45.5 -20.5t35 -29t14 -42zM178 -76q0 -23 -17.5 -43.5t-36.5 -31.5l-9 20q6 3 17.5 14t11.5 19q0 7 -9 13.5t-9 19.5q0 8 7 15t18 7t19 -9t8 -24z" />
    <glyph glyph-name="uni021A" unicode="&#x21a;" horiz-adv-x="341" 
d="M312 436h-122v-436h-35v436h-123v31h285zM200 -76q0 -23 -17.5 -43.5t-36.5 -31.5l-9 20q6 3 17.5 14t11.5 19q0 7 -9 13.5t-9 19.5q0 8 7 15t18 7t19 -9t8 -24z" />
    <glyph glyph-name="uni021B" unicode="&#x21b;" horiz-adv-x="201" 
d="M175 304h-76v-231q0 -29 8.5 -38t27.5 -9q11 0 20 2.5t19 9.5l9 -30q-20 -13 -49 -13q-35 0 -52 16t-17 61v232h-51l6 28h45v101l34 9v-110h76v-28zM137 -76q0 -23 -17.5 -43.5t-36.5 -31.5l-9 20q6 3 17.5 14t11.5 19q0 7 -9 13.5t-9 19.5q0 8 7 15t18 7t19 -9t8 -24z
" />
    <glyph glyph-name="circumflex" unicode="&#x2c6;" horiz-adv-x="170" 
d="M129 383l-44 46l-44 -46h-41l60 65h50l60 -65h-41z" />
    <glyph glyph-name="caron" unicode="&#x2c7;" horiz-adv-x="170" 
d="M41 448l44 -46l44 46h41l-60 -65h-50l-60 65h41z" />
    <glyph glyph-name="uni02C9" unicode="&#x2c9;" horiz-adv-x="174" 
d="M0 402v30h174v-30h-174z" />
    <glyph glyph-name="breve" unicode="&#x2d8;" horiz-adv-x="164" 
d="M82 379q-36 0 -57 19.5t-25 50.5h30q4 -21 16.5 -33t35.5 -12t35.5 12t16.5 33h30q-4 -31 -25 -50.5t-57 -19.5z" />
    <glyph glyph-name="dotaccent" unicode="&#x2d9;" horiz-adv-x="50" 
d="M50 419q0 -11 -7.5 -18t-18.5 -7q-10 0 -17 7t-7 18t7 18t17 7q11 0 18.5 -7t7.5 -18z" />
    <glyph glyph-name="ring" unicode="&#x2da;" horiz-adv-x="111" 
d="M111 428q0 -23 -16 -39.5t-39 -16.5t-39.5 16.5t-16.5 39.5t17 39.5t40 16.5t38.5 -16.5t15.5 -39.5zM87 428q0 13 -9 22t-22 9t-22.5 -9t-9.5 -22t9.5 -22t22.5 -9t22 9t9 22z" />
    <glyph glyph-name="ogonek" unicode="&#x2db;" horiz-adv-x="94" 
d="M73 0q-23 -10 -34 -25.5t-11 -31.5q0 -15 10 -24.5t31 -9.5q4 0 12 0.5t19 4.5l-9 -28q-5 -2 -15 -3.5t-15 -1.5q-35 0 -50 17.5t-15 45.5q0 18 9.5 32.5t23.5 23.5h44z" />
    <glyph glyph-name="tilde" unicode="&#x2dc;" horiz-adv-x="192" 
d="M192 448q0 -33 -10.5 -49.5t-36.5 -16.5q-9 0 -23 5t-28 11.5t-27 11.5t-19 5q-8 0 -10.5 -9.5t-2.5 -23.5h-35q0 30 10.5 49.5t36.5 19.5q10 0 23.5 -5t27 -11.5t26 -11.5t19.5 -5q9 0 11 8t3 22h35z" />
    <glyph glyph-name="hungarumlaut" unicode="&#x2dd;" horiz-adv-x="225" 
d="M146 383h-41l66 65h54zM41 383h-41l66 65h54z" />
    <glyph glyph-name="uni03A9" unicode="&#x3a9;" horiz-adv-x="469" 
d="M289 0v30q16 15 35 35.5t35 48.5t26.5 65t10.5 85q0 43 -10.5 80.5t-30.5 64.5t-50.5 42.5t-69.5 15.5q-37 0 -67.5 -15.5t-52 -42.5t-33 -64t-11.5 -80q0 -46 10 -82.5t25.5 -65t35 -50t37.5 -37.5v-30h-143v30h103q-16 13 -34 34t-33.5 50.5t-26 67t-10.5 84.5
q0 49 14.5 91.5t41 74t63.5 49t82 17.5q46 0 82 -16.5t61 -47t38.5 -73t13.5 -93.5q0 -42 -9.5 -79t-24 -67t-33 -53.5t-36.5 -38.5h104v-30h-143z" />
    <glyph glyph-name="uni03BC" unicode="&#x3bc;" horiz-adv-x="380" 
d="M49 -133v465h34v-221q0 -42 10.5 -62.5t50.5 -20.5q21 0 42 7.5t39 18t31 20t17 14.5v244h35v-289q0 -19 16 -19q5 0 14 3l6 -24q-21 -7 -34 -7q-6 0 -12.5 1t-12 5.5t-9 14t-3.5 25.5v10q-8 -8 -22.5 -17.5t-32.5 -18.5t-38.5 -15t-40.5 -6q-36 0 -56 13v-141h-34z" />
    <glyph glyph-name="pi" unicode="&#x3c0;" horiz-adv-x="412" 
d="M383 3q-7 -4 -16.5 -5.5t-18.5 -1.5q-39 0 -56 24t-17 59v241h-142v-231q0 -26 -2 -49.5t-7 -39.5h-35q5 19 7 43t2 46v231q-14 0 -34.5 -4t-33.5 -10l-11 28q11 5 33.5 10.5t53.5 5.5h277v-30h-73v-239q0 -25 10 -40t35 -15q8 0 20 5z" />
    <glyph glyph-name="uni060C" unicode="&#x60c;" horiz-adv-x="109" 
d="M20 33q0 26 19.5 48t40.5 35l9 -22q-3 -2 -8.5 -6.5t-10.5 -9.5t-9 -11t-4 -10t3 -7.5t7 -7.5t7 -9.5t3 -12.5q0 -9 -7.5 -16.5t-20.5 -7.5q-12 0 -20.5 10t-8.5 27z" />
    <glyph glyph-name="uni061B" unicode="&#x61b;" horiz-adv-x="109" 
d="M22 22q0 11 8 19.5t19 8.5t18.5 -8.5t7.5 -19.5t-7.5 -18.5t-18.5 -7.5t-19 7.5t-8 18.5zM20 257q0 26 19.5 48t40.5 35l9 -22q-3 -2 -8.5 -6.5t-10.5 -9.5t-9 -11t-4 -10t3 -7.5t7 -7.5t7 -9.5t3 -12.5q0 -9 -7.5 -16.5t-20.5 -7.5q-12 0 -20.5 10t-8.5 27z" />
    <glyph glyph-name="uni061F" unicode="&#x61f;" horiz-adv-x="272" 
d="M225 175h-33v83h-37q-26 0 -46 9t-33.5 23t-21 32.5t-7.5 38.5q0 44 29 75t76 31h73v-34h-73q-18 0 -31.5 -6.5t-22.5 -16.5t-13.5 -23t-4.5 -25q0 -27 19 -49t53 -22h73v-116zM230 22q0 -9 -6.5 -15.5t-15.5 -6.5t-16 6.5t-7 15.5t7 16t16 7t15.5 -7t6.5 -16z" />
    <glyph glyph-name="uni0640" unicode="&#x640;" horiz-adv-x="103" 
d="M108 33v-33h-108v33h108z" />
    <glyph glyph-name="uni064B" unicode="&#x64b;" 
d="M113 647h-113v19h113v-19zM113 564h-113v19h113v-19z" />
    <glyph glyph-name="uni064C" unicode="&#x64c;" 
d="M113 542q-4 -3 -10 -6.5t-11 -3.5q-9 0 -21.5 15.5t-27.5 38.5l-24 -46l-19 9l17 32q5 10 11 16.5t17 6.5q8 0 15.5 -7.5t14 -16l12 -16t10.5 -7.5q1 0 7 2l43 32q-15 18 -22 29t-7 25q0 20 15 33.5t34 13.5q21 0 35.5 -14t14.5 -34q0 -17 -9.5 -28t-29.5 -25l17 -17
l-17 -13l-16 18zM165 603l19.5 17t10.5 23q0 12 -8 20t-20 8q-11 0 -19.5 -7.5t-8.5 -18.5t6.5 -20.5t19.5 -21.5z" />
    <glyph glyph-name="uni064D" unicode="&#x64d;" 
d="M113 -96h-113v19h113v-19zM113 -179h-113v19h113v-19z" />
    <glyph glyph-name="uni064E" unicode="&#x64e;" 
d="M113 564h-113v19h113v-19z" />
    <glyph glyph-name="uni064F" unicode="&#x64f;" 
d="M109 603l20.5 17t10.5 23q0 12 -8.5 20.5t-20.5 8.5q-11 0 -19.5 -8t-8.5 -19q0 -12 9 -22.5zM92 591q-11 11 -20 24.5t-9 29.5q0 20 14.5 34t34.5 14t34.5 -14.5t14.5 -34.5t-12.5 -31.5t-26.5 -21.5l17 -16l-16 -14l-17 18q-23 -17 -47.5 -30t-50.5 -24l-8 16
l47.5 23.5t44.5 26.5z" />
    <glyph glyph-name="uni0650" unicode="&#x650;" 
d="M113 -96h-113v19h113v-19z" />
    <glyph glyph-name="uni0651" unicode="&#x651;" 
d="M173 603q0 -14 -5.5 -26.5t-28.5 -12.5h-105q-23 0 -28.5 12.5t-5.5 26.5v62h19v-66q0 -12 5 -14t12 -2h40v82h20v-82h40q7 0 12 2t5 14v66h20v-62z" />
    <glyph glyph-name="uni0652" unicode="&#x652;" 
d="M78 611q0 12 -9 20.5t-20 8.5t-19.5 -9t-8.5 -20t8.5 -19.5t19.5 -8.5t20 8.5t9 19.5zM98 612q0 -21 -14.5 -35.5t-34.5 -14.5t-34.5 14.5t-14.5 35.5q0 20 14.5 34.5t34.5 14.5t34.5 -14.5t14.5 -34.5z" />
    <glyph glyph-name="uni0653" unicode="&#x653;" 
d="M104 551q-7 -9 -16 -9q-6 0 -13.5 4t-15 8.5t-13.5 8.5t-9 4q-5 0 -11 -6l-14 -15l-12 12l16 17q9 11 18 11q5 0 12 -4t14.5 -9l13.5 -9t10 -4q5 0 11 6l15 16l12 -12z" />
    <glyph glyph-name="uni0654" unicode="&#x654;" 
d="M94 643h-17q-14 0 -24.5 -7t-10.5 -23q0 -17 10.5 -23.5t22.5 -6.5h38v-19h-113v19h32q-6 6 -8.5 14.5t-2.5 16.5q0 17 12 32.5t38 15.5h23v-19z" />
    <glyph glyph-name="uni0655" unicode="&#x655;" 
d="M94 -96h-17q-14 0 -24.5 -7t-10.5 -23q0 -17 10.5 -23.5t22.5 -6.5h38v-19h-113v19h32q-6 6 -8.5 14.5t-2.5 16.5q0 17 12 32.5t38 15.5h23v-19z" />
    <glyph glyph-name="uni0660" unicode="&#x660;" horiz-adv-x="191" 
d="M144 220q0 -20 -14.5 -34.5t-34.5 -14.5t-34 14.5t-14 34.5t14 34t34 14t34.5 -14t14.5 -34z" />
    <glyph glyph-name="uni0661" unicode="&#x661;" horiz-adv-x="127" 
d="M80 0h-33v467h33v-467z" />
    <glyph glyph-name="uni0662" unicode="&#x662;" horiz-adv-x="279" 
d="M232 433h-93q-35 0 -47 -19.5t-12 -43.5v-370h-33v371q0 46 26 71t71 25h88v-34z" />
    <glyph glyph-name="uni0663" unicode="&#x663;" horiz-adv-x="477" 
d="M80 0h-33v467h33v-217h142v217h33v-217h80q25 0 43.5 16.5t18.5 46.5v154h33v-155q0 -38 -24 -67t-77 -29h-249v-216z" />
    <glyph glyph-name="uni0664" unicode="&#x664;" horiz-adv-x="292" 
d="M183 217q-43 0 -73 -21.5t-30 -68.5q0 -18 6.5 -34.5t18.5 -30t30 -21.5t41 -8h69v-33h-71q-30 0 -54 10.5t-40.5 28.5t-25 41t-8.5 47t6 42t15 30.5t18.5 21t17.5 13.5q-29 19 -42.5 45.5t-13.5 59.5q0 55 35 91.5t96 36.5h67v-34h-62q-42 0 -72.5 -24t-30.5 -70
q0 -14 4.5 -29.5t15.5 -29t29.5 -22t46.5 -8.5h69v-33h-62z" />
    <glyph glyph-name="uni0665" unicode="&#x665;" horiz-adv-x="358" 
d="M79 383q2 16 9 31t19 27t30 19t42 7q25 0 43 -7t30 -19t18.5 -27.5t8.5 -31.5l30 -230q1 -9 2 -22t1 -22q0 -30 -11.5 -50.5t-30 -33t-42.5 -18.5t-48 -6q-59 0 -96 27.5t-37 81.5q0 4 0.5 10.5l1 13t1 12t0.5 7.5zM81 132q-1 -5 -1 -10.5v-10.5q0 -18 8 -32t22 -24
t32 -15.5t38 -5.5q19 0 37 5.5t32 15.5t22 24t8 32v10.5t-1 10.5l-28 242q-3 27 -22.5 44t-48.5 17q-30 0 -49 -17t-22 -44z" />
    <glyph glyph-name="uni0666" unicode="&#x666;" horiz-adv-x="279" 
d="M47 467h88q45 0 71 -25t26 -71v-371h-33v370q0 24 -12 43.5t-47 19.5h-93v34z" />
    <glyph glyph-name="uni0667" unicode="&#x667;" horiz-adv-x="381" 
d="M145 79q1 -8 3.5 -16.5t7.5 -15t13 -10.5t21 -4q26 0 34.5 14.5t11.5 31.5l65 388h33l-63 -382q-2 -15 -6.5 -30t-13.5 -27.5t-23.5 -20t-37.5 -7.5t-37.5 7.5t-23 20t-13 27.5t-6.5 30l-63 382h33z" />
    <glyph glyph-name="uni0668" unicode="&#x668;" horiz-adv-x="381" 
d="M80 0h-33l63 382q2 15 6.5 30t13 27t23 20t37.5 8t37.5 -8t23.5 -20t13.5 -27t6.5 -30l63 -382h-33l-65 388q-3 17 -11.5 31.5t-34.5 14.5t-34 -15t-11 -31z" />
    <glyph glyph-name="uni0669" unicode="&#x669;" horiz-adv-x="314" 
d="M146 216q-53 0 -76 27t-23 68v61q0 49 27 72t71 23h122v-467h-33v216h-88zM234 433h-93q-61 0 -61 -62v-59q0 -26 13.5 -44t45.5 -18h95v183z" />
    <glyph glyph-name="uni066A" unicode="&#x66a;" horiz-adv-x="328" 
d="M83 0h-36l199 467h36zM265 87q0 -8 -6.5 -15t-15.5 -7t-15.5 7t-6.5 15q0 9 6.5 16t15.5 7t15.5 -7t6.5 -16zM107 379q0 -9 -6.5 -15.5t-15.5 -6.5t-15.5 6.5t-6.5 15.5t6.5 16t15.5 7t15.5 -7t6.5 -16z" />
    <glyph glyph-name="uni066B" unicode="&#x66b;" horiz-adv-x="155" 
d="M109 13q0 -26 -19.5 -48t-40.5 -35l-9 22q3 2 8.5 6.5t10.5 9.5t9 10.5t4 10.5q0 7 -10 15t-10 22q0 9 7.5 16.5t20.5 7.5q12 0 20.5 -10t8.5 -27z" />
    <glyph glyph-name="uni066C" unicode="&#x66c;" horiz-adv-x="155" 
d="M49 33q0 26 19.5 48t40.5 35l9 -22q-3 -2 -8.5 -6.5t-10.5 -9.5t-9 -11t-4 -10t3 -7.5t7 -7.5t7 -9.5t3 -12.5q0 -9 -7.5 -16.5t-20.5 -7.5q-12 0 -20.5 10t-8.5 27z" />
    <glyph glyph-name="uni066D" unicode="&#x66d;" horiz-adv-x="362" 
d="M204 110l68 -91l-26 -19l-64 87l-66 -87l-26 20l67 90l-110 37l10 31l107 -35v115h33v-115l108 35l10 -31z" />
    <glyph glyph-name="uni0670" unicode="&#x670;" 
d="M0 738v138h20v-138h-20z" />
    <glyph glyph-name="uni06C2" unicode="&#x6c2;" horiz-adv-x="314" 
d="M138 299q-31 0 -44.5 -17.5t-13.5 -44.5v-136q0 -21 7 -34.5t18 -20.5t24.5 -9.5t27.5 -2.5q15 0 29 3t24.5 10.5t17 20.5t6.5 33v198h-96zM267 91q0 -26 -10 -43t-26 -28t-35.5 -15.5t-38.5 -4.5q-20 0 -39.5 4.5t-35.5 15t-25.5 28t-9.5 43.5v148q0 47 27.5 70t71.5 23
h121v-241zM186 519h-17q-14 0 -24.5 -7t-10.5 -23q0 -17 10.5 -23.5t22.5 -6.5h38v-19h-113v19h32q-6 6 -8.5 14.5t-2.5 16.5q0 17 12 32.5t38 15.5h23v-19z" />
    <glyph glyph-name="uni06C3" unicode="&#x6c3;" horiz-adv-x="314" 
d="M138 299q-31 0 -44.5 -17.5t-13.5 -44.5v-136q0 -21 7 -34.5t18 -20.5t24.5 -9.5t27.5 -2.5q15 0 29 3t24.5 10.5t17 20.5t6.5 33v198h-96zM267 91q0 -26 -10 -43t-26 -28t-35.5 -15.5t-38.5 -4.5q-20 0 -39.5 4.5t-35.5 15t-25.5 28t-9.5 43.5v148q0 47 27.5 70t71.5 23
h121v-241zM142 461q0 -9 -6.5 -15t-15.5 -6t-16 6t-7 15q0 10 7 16.5t16 6.5t15.5 -6.5t6.5 -16.5zM218 461q0 -9 -6 -15t-15 -6q-10 0 -16.5 6t-6.5 15q0 10 6.5 16.5t16.5 6.5q9 0 15 -6.5t6 -16.5z" />
    <glyph glyph-name="uni06F0" unicode="&#x6f0;" horiz-adv-x="191" 
d="M144 220q0 -20 -14.5 -34.5t-34.5 -14.5t-34 14.5t-14 34.5t14 34t34 14t34.5 -14t14.5 -34z" />
    <glyph glyph-name="uni06F1" unicode="&#x6f1;" horiz-adv-x="127" 
d="M80 0h-33v467h33v-467z" />
    <glyph glyph-name="uni06F2" unicode="&#x6f2;" horiz-adv-x="279" 
d="M232 433h-93q-35 0 -47 -19.5t-12 -43.5v-370h-33v371q0 46 26 71t71 25h88v-34z" />
    <glyph glyph-name="uni06F3" unicode="&#x6f3;" horiz-adv-x="477" 
d="M80 0h-33v467h33v-217h142v217h33v-217h80q25 0 43.5 16.5t18.5 46.5v154h33v-155q0 -38 -24 -67t-77 -29h-249v-216z" />
    <glyph glyph-name="uni06F4" unicode="&#x6f4;" horiz-adv-x="364" 
d="M80 251h58q69 0 101.5 16t44.5 58h33q-6 -35 -23 -56t-41 -32.5t-53 -15.5t-57 -4h-63v-217h-33v467h33v-104q32 49 81 75.5t106 28.5v-34q-41 0 -75 -15.5t-59 -40t-39 -54t-14 -57.5v-15z" />
    <glyph glyph-name="uni06F5" unicode="&#x6f5;" horiz-adv-x="377" 
d="M188 27q-16 -14 -32.5 -21t-36.5 -7q-32 0 -52.5 23t-20.5 61q0 14 2 28l4 28l35 245q2 15 8.5 30t18.5 27t30 19.5t44 7.5q27 0 45.5 -7.5t30.5 -19.5t18 -27t8 -30l35 -245q2 -14 3.5 -28t1.5 -28q0 -38 -20.5 -61t-52.5 -23q-38 0 -69 28zM188 73q11 -16 27 -28
t36 -12q22 0 34 12t12 40q0 11 -1 22t-3 22l-31 243q-5 35 -23.5 49t-50.5 14t-50.5 -15t-23.5 -48l-31 -243q-2 -11 -3.5 -22t-1.5 -22q0 -28 13 -40t34 -12q20 0 36 12t27 28z" />
    <glyph glyph-name="uni06F6" unicode="&#x6f6;" horiz-adv-x="395" 
d="M47 0q7 30 21.5 60t34 57.5t43 51.5t47.5 43q-39 18 -65.5 49.5t-26.5 76.5q0 30 12 54t31.5 40.5t45.5 25.5t55 9q14 0 27 -2t27 -5v-34q-14 4 -26.5 6t-26.5 2q-49 0 -80.5 -27t-31.5 -67q0 -21 8 -37.5t20.5 -29.5t28.5 -22.5t33 -16.5l29.5 17.5t26 13t29.5 10.5
l40 12v-34q-51 -14 -93.5 -39t-76.5 -58.5t-58.5 -73.5t-40.5 -82h-33z" />
    <glyph glyph-name="uni06F7" unicode="&#x6f7;" horiz-adv-x="381" 
d="M145 79q1 -8 3.5 -16.5t7.5 -15t13 -10.5t21 -4q26 0 34.5 14.5t11.5 31.5l65 388h33l-63 -382q-2 -15 -6.5 -30t-13.5 -27.5t-23.5 -20t-37.5 -7.5t-37.5 7.5t-23 20t-13 27.5t-6.5 30l-63 382h33z" />
    <glyph glyph-name="uni06F8" unicode="&#x6f8;" horiz-adv-x="381" 
d="M80 0h-33l63 382q2 15 6.5 30t13 27t23 20t37.5 8t37.5 -8t23.5 -20t13.5 -27t6.5 -30l63 -382h-33l-65 388q-3 17 -11.5 31.5t-34.5 14.5t-34 -15t-11 -31z" />
    <glyph glyph-name="uni06F9" unicode="&#x6f9;" horiz-adv-x="314" 
d="M146 216q-53 0 -76 27t-23 68v61q0 49 27 72t71 23h122v-467h-33v216h-88zM234 433h-93q-61 0 -61 -62v-59q0 -26 13.5 -44t45.5 -18h95v183z" />
    <glyph glyph-name="Wgrave" unicode="&#x1e80;" horiz-adv-x="581" 
d="M431 0h-38l-102 414l-103 -414h-37l-129 467h36l112 -415l102 415h38l102 -415l111 415h36zM311 520l-80 65h55l65 -65h-40z" />
    <glyph glyph-name="wgrave" unicode="&#x1e81;" horiz-adv-x="442" 
d="M334 0h-33l-79 292l-79 -292h-34l-95 332h33l79 -290l78 290h35l77 -290l79 290h33zM241 383l-80 65h55l65 -65h-40z" />
    <glyph glyph-name="Wacute" unicode="&#x1e82;" horiz-adv-x="581" 
d="M431 0h-38l-102 414l-103 -414h-37l-129 467h36l112 -415l102 415h38l102 -415l111 415h36zM272 520h-41l66 65h54z" />
    <glyph glyph-name="wacute" unicode="&#x1e83;" horiz-adv-x="442" 
d="M334 0h-33l-79 292l-79 -292h-34l-95 332h33l79 -290l78 290h35l77 -290l79 290h33zM202 383h-41l66 65h54z" />
    <glyph glyph-name="Wdieresis" unicode="&#x1e84;" horiz-adv-x="581" 
d="M431 0h-38l-102 414l-103 -414h-37l-129 467h36l112 -415l102 415h38l102 -415l111 415h36zM376 556q0 -11 -7.5 -18t-17.5 -7q-11 0 -18 7t-7 18t7 18t18 7q10 0 17.5 -7t7.5 -18zM255 556q0 -11 -7.5 -18t-18.5 -7q-10 0 -17 7t-7 18t7 18t17 7q11 0 18.5 -7t7.5 -18z
" />
    <glyph glyph-name="wdieresis" unicode="&#x1e85;" horiz-adv-x="442" 
d="M334 0h-33l-79 292l-79 -292h-34l-95 332h33l79 -290l78 290h35l77 -290l79 290h33zM307 419q0 -11 -7.5 -18t-17.5 -7q-11 0 -18 7t-7 18t7 18t18 7q10 0 17.5 -7t7.5 -18zM186 419q0 -11 -7.5 -18t-18.5 -7q-10 0 -17 7t-7 18t7 18t17 7q11 0 18.5 -7t7.5 -18z" />
    <glyph glyph-name="Ygrave" unicode="&#x1ef2;" horiz-adv-x="378" 
d="M207 201v-201h-35v201l-162 266h38l141 -235l142 235h37zM199 520l-80 65h55l65 -65h-40z" />
    <glyph glyph-name="ygrave" unicode="&#x1ef3;" horiz-adv-x="297" 
d="M153 -35q-18 -50 -39.5 -76.5t-65.5 -26.5q-17 0 -30 3.5t-21 8.5l7 30q9 -5 19 -9t27 -4q14 0 24.5 5.5t19.5 17.5t17.5 31t18.5 47l6 17l-132 323h36l112 -280l99 280h36zM155 383l-80 65h55l65 -65h-40z" />
    <glyph glyph-name="uni200C" unicode="&#x200c;" 
d="M39 323l-8 -7l-19 21v-386h-11v386l-20 -21l-8 7l26 26l-26 25l8 8l25 -26l25 26l8 -8l-25 -25z" />
    <glyph glyph-name="uni200D" unicode="&#x200d;" 
d="M10 -41h-10v393h10v-393z" />
    <glyph glyph-name="uni200E" unicode="&#x200e;" 
d="M73 348l-32 -33l-7 8l20 20h-42v-388h-11v398h52l-19 20l7 8z" />
    <glyph glyph-name="uni200F" unicode="&#x200f;" 
d="M-29 381l7 -8l-19 -20h51v-403h-11v393h-42l21 -20l-7 -8l-33 33z" />
    <glyph glyph-name="endash" unicode="&#x2013;" horiz-adv-x="386" 
d="M18 178v32h350v-32h-350z" />
    <glyph glyph-name="emdash" unicode="&#x2014;" horiz-adv-x="736" 
d="M18 178v32h700v-32h-700z" />
    <glyph glyph-name="quoteleft" unicode="&#x2018;" horiz-adv-x="133" 
d="M43 422q0 23 17.5 44.5t43.5 38.5l8 -22q-3 -2 -8.5 -6.5t-10.5 -9.5t-9 -11t-4 -10q0 -5 3 -8.5t7 -7t7 -8.5t3 -13q0 -10 -7 -17.5t-21 -7.5q-11 0 -20 10t-9 28z" />
    <glyph glyph-name="quoteright" unicode="&#x2019;" horiz-adv-x="133" 
d="M90 467q0 -23 -17.5 -44.5t-43.5 -38.5l-8 22q3 2 8.5 6.5t10.5 9.5t9 10.5t4 10.5t-3 8.5t-7 7t-7 8.5t-3 13q0 10 7 17.5t21 7.5q11 0 20 -10t9 -28z" />
    <glyph glyph-name="quotesinglbase" unicode="&#x201a;" horiz-adv-x="133" 
d="M90 12q0 -23 -17.5 -44.5t-43.5 -38.5l-8 22q3 2 8.5 6.5t10.5 9.5t9 10.5t4 10.5t-3 8.5t-7 7t-7 8.5t-3 13q0 10 7 17.5t21 7.5q11 0 20 -10t9 -28z" />
    <glyph glyph-name="quotedblleft" unicode="&#x201c;" horiz-adv-x="211" 
d="M43 422q0 23 17.5 44.5t43.5 38.5l8 -22q-3 -2 -8.5 -6.5t-10.5 -9.5t-9 -11t-4 -10q0 -5 3 -8.5t7 -7t7 -8.5t3 -13q0 -10 -7 -17.5t-21 -7.5q-11 0 -20 10t-9 28zM121 422q0 23 17.5 44.5t43.5 38.5l8 -22q-3 -2 -8.5 -6.5t-10.5 -9.5t-9 -11t-4 -10q0 -5 3 -8.5t7 -7
t7 -8.5t3 -13q0 -10 -7 -17.5t-21 -7.5q-11 0 -20 10t-9 28z" />
    <glyph glyph-name="quotedblright" unicode="&#x201d;" horiz-adv-x="211" 
d="M168 467q0 -23 -17.5 -44.5t-43.5 -38.5l-8 22q3 2 8.5 6.5t10.5 9.5t9 10.5t4 10.5t-3 8.5t-7 7t-7 8.5t-3 13q0 10 7 17.5t21 7.5q11 0 20 -10t9 -28zM90 467q0 -23 -17.5 -44.5t-43.5 -38.5l-8 22q3 2 8.5 6.5t10.5 9.5t9 10.5t4 10.5t-3 8.5t-7 7t-7 8.5t-3 13
q0 10 7 17.5t21 7.5q11 0 20 -10t9 -28z" />
    <glyph glyph-name="quotedblbase" unicode="&#x201e;" horiz-adv-x="211" 
d="M169 12q0 -23 -17.5 -44.5t-43.5 -38.5l-8 22q3 2 8.5 6.5t10.5 9.5t9 10.5t4 10.5t-3 8.5t-7 7t-7 8.5t-3 13q0 10 7 17.5t21 7.5q11 0 20 -10t9 -28zM91 12q0 -23 -17.5 -44.5t-43.5 -38.5l-8 22q3 2 8.5 6.5t10.5 9.5t9 10.5t4 10.5t-3 8.5t-7 7t-7 8.5t-3 13
q0 10 7 17.5t21 7.5q11 0 20 -10t9 -28z" />
    <glyph glyph-name="dagger" unicode="&#x2020;" horiz-adv-x="298" 
d="M165 317l5 -363h-43l5 363l-83 -7v48l83 -7l-5 161h43l-5 -161l84 7v-48z" />
    <glyph glyph-name="daggerdbl" unicode="&#x2021;" horiz-adv-x="298" 
d="M165 115l5 -161h-43l5 161l-83 -7v48l83 -7v168l-83 -7v48l83 -7l-5 161h43l-5 -161l84 7v-48l-84 7v-168l84 7v-48z" />
    <glyph glyph-name="bullet" unicode="&#x2022;" horiz-adv-x="288" 
d="M245 211q0 -21 -8 -39t-22 -31.5t-32 -21.5t-39 -8t-39.5 8t-32 21.5t-21.5 31.5t-8 39t8 39.5t21.5 32t32 21.5t39.5 8t39 -8t32 -21.5t22 -32t8 -39.5z" />
    <glyph glyph-name="ellipsis" unicode="&#x2026;" horiz-adv-x="396" 
d="M355 24q0 -11 -8 -19.5t-19 -8.5t-19 8.5t-8 19.5t8 18.5t19 7.5t19 -7.5t8 -18.5zM236 24q0 -11 -8 -19.5t-19 -8.5t-19 8.5t-8 19.5t8 18.5t19 7.5t19 -7.5t8 -18.5zM117 24q0 -11 -8 -19.5t-19 -8.5t-19 8.5t-8 19.5t8 18.5t19 7.5t19 -7.5t8 -18.5z" />
    <glyph glyph-name="perthousand" unicode="&#x2030;" horiz-adv-x="949" 
d="M914 126q0 -40 -10 -65.5t-26.5 -40.5t-38 -20.5t-43.5 -5.5q-23 0 -44 5.5t-38 20.5t-27 40.5t-10 65.5t10 66t27 41t38 21t44 6q22 0 43.5 -6t38 -21t26.5 -41t10 -66zM619 126q0 -40 -10 -65.5t-27 -40.5t-38.5 -20.5t-43.5 -5.5t-43.5 5.5t-38 20.5t-27 40.5
t-10.5 65.5t10.5 66t27 41t38 21t43.5 6t43.5 -6t38.5 -21t27 -41t10 -66zM211 -12h-32l253 491h32zM272 340q0 -40 -10 -65.5t-26.5 -40t-38 -20t-43.5 -5.5q-23 0 -44 5.5t-38 20t-27 40t-10 65.5t10 66t27 41.5t38 21.5t44 6q22 0 43.5 -6t38 -21.5t26.5 -41.5t10 -66z
M883 126q0 34 -7.5 55.5t-19.5 33t-28 15.5t-32 4q-17 0 -32.5 -4t-28 -15.5t-20 -33t-7.5 -55.5q0 -35 7.5 -55.5t20 -31.5t28 -14.5t32.5 -3.5q16 0 32 3.5t28 14.5t19.5 31.5t7.5 55.5zM588 126q0 34 -7.5 55.5t-19.5 33t-28 15.5t-33 4t-32.5 -4t-28 -15.5t-20 -33
t-7.5 -55.5q0 -35 7.5 -55.5t20 -31.5t28 -14.5t32.5 -3.5t33 3.5t28 14.5t19.5 31.5t7.5 55.5zM241 340q0 34 -7.5 55.5t-19.5 33t-28 15.5t-32 4q-17 0 -32.5 -4t-28 -15.5t-20 -33t-7.5 -55.5q0 -35 7.5 -55.5t20 -31.5t28 -14.5t32.5 -3.5q16 0 32 3.5t28 14.5
t19.5 31.5t7.5 55.5z" />
    <glyph glyph-name="guilsinglleft" unicode="&#x2039;" horiz-adv-x="198" 
d="M132 66l-85 120l85 117h40l-78 -117l78 -120h-40z" />
    <glyph glyph-name="guilsinglright" unicode="&#x203a;" horiz-adv-x="198" 
d="M26 66l78 120l-78 117h40l85 -117l-85 -120h-40z" />
    <glyph glyph-name="fraction" unicode="&#x2044;" horiz-adv-x="321" 
d="M50 -12h-32l253 491h32z" />
    <glyph glyph-name="Euro" unicode="&#x20ac;" horiz-adv-x="432" 
d="M374 423q-17 9 -42.5 15t-52.5 6q-26 0 -51.5 -8t-46.5 -26.5t-36.5 -50t-21.5 -78.5h226l-5 -29h-224v-39h213l-6 -29h-205q6 -58 27.5 -90.5t47 -48t50 -18.5t38.5 -3q19 0 45.5 6.5t46.5 14.5l-7 -37q-18 -7 -44 -11t-45 -4q-79 1 -131.5 47.5t-62.5 143.5h-55v29h53
v39h-53v29h56q6 43 20 78.5t37.5 61t55.5 40t74 14.5q45 0 70 -8t36 -13z" />
    <glyph glyph-name="uni2113" unicode="&#x2113;" horiz-adv-x="325" 
d="M266 40q-13 -15 -34 -31.5t-51 -16.5q-31 0 -48 19q-24 24 -24 78v95l-42 -50l-22 21l64 74v170q0 57 19.5 84t52.5 27q16 0 27.5 -6.5t19 -16.5t10.5 -22t3 -23q0 -50 -22 -95.5t-54 -92.5q-5 -6 -10.5 -14.5t-10.5 -13.5v-143q0 -33 12.5 -47t29.5 -14q20 0 35 11.5
t28 25.5zM207 439q0 14 -5.5 27.5t-20.5 13.5q-17 0 -27 -17t-10 -67v-121q7 8 12 19q23 37 37 73.5t14 71.5z" />
    <glyph glyph-name="trademark" unicode="&#x2122;" horiz-adv-x="418" 
d="M337 284v147l-46 -147h-27l-46 147v-147h-27v183h44l42 -146l43 146h44v-183h-27zM154 441h-42v-157h-27v157h-42v26h115z" />
    <glyph glyph-name="Omega" unicode="&#x2126;" horiz-adv-x="469" 
d="M289 0v30q16 15 35 35.5t35 48.5t26.5 65t10.5 85q0 43 -10.5 80.5t-30.5 64.5t-50.5 42.5t-69.5 15.5q-37 0 -67.5 -15.5t-52 -42.5t-33 -64t-11.5 -80q0 -46 10 -82.5t25.5 -65t35 -50t37.5 -37.5v-30h-143v30h103q-16 13 -34 34t-33.5 50.5t-26 67t-10.5 84.5
q0 49 14.5 91.5t41 74t63.5 49t82 17.5q46 0 82 -16.5t61 -47t38.5 -73t13.5 -93.5q0 -42 -9.5 -79t-24 -67t-33 -53.5t-36.5 -38.5h104v-30h-143z" />
    <glyph glyph-name="estimated" unicode="&#x212e;" horiz-adv-x="446" 
d="M113 199v-137q46 -44 110 -44q51 0 86 24t60 67l25 -16q-31 -47 -70 -74t-101 -27q-45 0 -81 16.5t-61.5 44.5t-39 66t-13.5 81t13.5 81t38.5 66t61.5 44t81.5 16q46 0 82.5 -16t61.5 -44.5t38.5 -66.5t15.5 -81h-308zM332 336q-21 22 -49.5 34t-60.5 12q-64 0 -109 -45
v-112h219v111z" />
    <glyph glyph-name="onethird" unicode="&#x2153;" horiz-adv-x="537" 
d="M100 -12h-32l252 491h33zM80 215v227l-48 -19v26l54 22h24v-256h-30zM485 77q0 -21 -9.5 -36.5t-24.5 -25t-34.5 -14.5t-38.5 -5q-39 0 -64.5 9.5t-27.5 11.5l4 28q12 -8 32 -15.5t56 -7.5q10 0 23.5 2t24.5 7.5t19 16.5t8 29q0 16 -7.5 24.5t-18 12.5t-22 5t-18.5 1h-51
v27h51q11 0 21.5 1.5t19 6t13.5 13t5 22.5q0 15 -7 23.5t-17 13t-22.5 6t-22.5 1.5q-36 0 -55.5 -7t-27.5 -12l5 30q11 5 29.5 10.5t48.5 5.5q44 0 72.5 -18.5t28.5 -52.5q0 -27 -15 -39.5t-31 -17.5q19 -2 36 -16t17 -40z" />
    </font>
</defs>
</svg>
